<?xml version="1.0" standalone="no"?>
<!DOCTYPE svg PUBLIC "-//W3C//DTD SVG 1.1//EN" "http://www.w3.org/Graphics/SVG/1.1/DTD/svg11.dtd" >
<svg xmlns="http://www.w3.org/2000/svg">
<metadata></metadata>
<defs>
<font id="appetiteregular" horiz-adv-x="1411" >
<font-face units-per-em="2048" ascent="1536" descent="-512" />
<missing-glyph horiz-adv-x="509" />
<glyph unicode="&#xfb01;" horiz-adv-x="1230" d="M12 848v174q0 4 1.5 6t2.5 2h2h117q-3 70 9.5 134t45 125t83.5 107.5t130 79.5t179 44q96 10 186.5 -3t162 -46.5t111.5 -93.5t33 -138q-5 -58 -43.5 -97t-92.5 -53t-115 -9.5t-113 26.5q-19 6 -23 14q-4 7 0.5 20t11.5 39t7 56q0 33 -12 58.5t-31 38.5t-41.5 19 t-45.5 -0.5t-42 -19.5t-31 -39t-12 -59q0 -45 7 -75t19 -63t19 -65h313q130 0 224.5 -82.5t94.5 -220.5v-715q0 -4 -2 -7t-4 -4l-2 -1h-403q-8 2 -8 10q8 404 8 543q0 76 -9.5 129.5t-25.5 85.5t-43.5 48.5t-58 20.5t-74.5 1v-826q0 -4 -2 -7t-4 -4l-2 -1h-396q-8 2 -8 10 l-2 828h-113z" />
<glyph unicode="&#xfb02;" horiz-adv-x="1267" d="M10 848v174q0 4 2 6t4 2h2h117q-9 90 4.5 163.5t42.5 124t75 88.5t95 59.5t109 34.5t110.5 17.5t106.5 4.5q178 0 295.5 -54.5t177.5 -134.5q6 -6 6 -20v-901l-2 -2q0 -90 14.5 -150.5t33.5 -84t38 -35t29.5 -19t5.5 -21.5q-18 -52 -99.5 -98.5t-164.5 -46.5 q-127 0 -207 84.5t-80 226.5l2 572h-182v-826q0 -4 -2 -7t-4 -4l-2 -1h-396q-8 2 -8 10v828h-115q-8 0 -8 10zM496 1219q1 -32 5.5 -59.5t8.5 -43t12 -42.5t13 -44h192l4 197q1 85 -59.5 116.5t-120 -6t-55.5 -118.5z" />
<glyph unicode="&#xfb03;" horiz-adv-x="1804" d="M10 848v174q0 4 2 6t4 2h2h119q-6 95 25.5 173.5t86 128.5t126 79t144 31.5t142.5 -21.5t119 -73l25 -29q29 72 133 130.5t238 70.5q96 9 183 -4.5t155 -46.5t105 -92.5t30 -137.5q-5 -58 -43.5 -97t-93 -53t-115.5 -9.5t-113 26.5q-18 6 -22 14q-4 7 0 20t11 39t7 56 q0 75 -51 105.5t-100 -1t-44 -106.5q5 -92 45 -203h293q130 0 225 -82.5t95 -220.5v-715q0 -4 -2 -7t-4 -4l-2 -1h-404q-8 2 -8 10q8 404 8 543q0 73 -10.5 128t-24.5 83.5t-33.5 46t-33 22t-27.5 5.5h-61v-826q0 -4 -2 -7t-4 -4l-2 -1h-396q-8 2 -8 10v828h-184v-826 q0 -4 -2 -7t-4 -4l-2 -1h-396q-8 2 -8 10v828h-115q-8 0 -8 10zM535 1030h184q8 23 8 55t-7.5 64.5t-30.5 55t-58 22.5q-62 0 -88 -59t-8 -138z" />
<glyph unicode="&#xfb04;" horiz-adv-x="1859" d="M10 848v174q0 4 2 6t4 2h2h119q-6 95 25.5 173.5t86 128.5t126 79t144 31.5t142.5 -21.5t119 -73l6 -15q55 77 174.5 132.5t307.5 56.5q145 0 281.5 -58.5t191.5 -130.5q6 -6 6 -20v-398v-4q2 -358 2 -499q0 -91 14.5 -151.5t33.5 -84t38 -35.5t29.5 -19.5t5.5 -21.5 q-18 -52 -99.5 -98.5t-164.5 -46.5q-127 0 -207 84.5t-80 226.5h-2v572h-176v-826q0 -4 -2 -7t-4 -4l-2 -1h-396q-8 2 -8 10v828h-184v-826q0 -4 -2 -7t-4 -4l-2 -1h-396q-8 2 -8 10v828h-115q-8 0 -8 10zM535 1030h178q8 23 8 55t-7.5 64.5t-30.5 55t-58 22.5 q-62 0 -85 -58.5t-5 -138.5zM1096 1219q1 -32 5.5 -59.5t8.5 -43t12 -42.5t13 -44h182l4 197q1 85 -57 116.5t-115 -6t-53 -118.5z" />
<glyph horiz-adv-x="2048" />
<glyph horiz-adv-x="2048" />
<glyph unicode="&#xd;" horiz-adv-x="2048" />
<glyph unicode=" "  horiz-adv-x="509" />
<glyph unicode="&#x09;" horiz-adv-x="509" />
<glyph unicode="&#xa0;" horiz-adv-x="509" />
<glyph unicode="!" horiz-adv-x="544" d="M-8 1393q19 51 93 98t155 47q126 0 205 -84.5t79 -228.5q0 -106 -13.5 -232.5t-40 -251.5t-73.5 -208.5t-106 -83.5q-35 0 -63.5 34t-46.5 92.5t-31.5 124t-21 142t-11 132t-4.5 107.5q-2 76 -13 131.5t-26 81.5t-31 43.5t-29.5 22.5t-19.5 13t-2 20zM98 164q0 83 59 142 t142 59t142 -59t59 -142q0 -85 -59 -144t-142 -59t-142 59t-59 144z" />
<glyph unicode="&#x22;" horiz-adv-x="808" d="M31 1305q0 56 15.5 101.5t41 73.5t57.5 43.5t66 15.5t66 -15.5t57.5 -43.5t41 -73.5t15.5 -101.5q0 -96 -30.5 -198t-72.5 -166t-77 -64t-77 64.5t-72.5 166.5t-30.5 197zM418 1305q0 56 15.5 101.5t41 73.5t57.5 43.5t66 15.5t66 -15.5t57.5 -43.5t41 -73.5t15.5 -101.5 q0 -96 -30.5 -198t-72.5 -166t-77 -64t-77 64.5t-72.5 166.5t-30.5 197z" />
<glyph unicode="#" horiz-adv-x="1208" d="M12 276v3l45 135q3 6 11 6h249q54 156 68 201h-258q-4 0 -5.5 2t-1.5 4l1 2l45 135q2 8 10 8q125 0 260 -2l84 252q1 4 4 6.5t6 3.5h2h134q1 0 2 -0.5t3 -2.5t-1 -7q-35 -107 -84 -252h190l86 252q1 4 3.5 6.5t4.5 3.5h2h134l6 -10q-37 -109 -84 -254h262l6 -8l-43 -133 q-4 -9 -14 -9h-262q-12 -34 -68 -200h272l6 -8l-43 -134q-4 -8 -14 -8h-270q-18 -55 -38.5 -114.5t-33 -96.5t-16.5 -49q-1 -4 -3.5 -6t-4.5 -2h-2h-136l-5 1q-1 1 1 5q5 18 86 262q-127 0 -190 2q-81 -244 -86 -262q-2 -4 -4.5 -6t-3.5 -2h-2h-138l-4 1q-1 1 0 5 q4 10 15 43.5t33.5 102t39.5 118.5h-250q-4 0 -5.5 2t-0.5 4zM469 420q127 0 190 -2q56 166 68 200q-95 3 -192 3q-27 -89 -66 -201z" />
<glyph unicode="$" horiz-adv-x="1024" d="M20 221q0 77 54.5 132t138.5 55q50 0 96.5 -11.5t52.5 -23.5q4 -6 5.5 -15.5t1.5 -18t-1 -24t-1 -26.5q0 -60 32.5 -92.5t85.5 -32.5q104 0 107 92q-1 24 -13.5 43.5t-28 32.5t-48.5 27.5t-55 22t-68 22t-70 22.5q-74 27 -131.5 65t-98.5 101.5t-42 140.5v6 q0 116 87.5 198.5t217.5 117.5l-18 135q-1 4 1 7t5 4l2 1l121 6q8 0 8 -10q-4 -39 -4 -125h28q43 0 66 -2l-6 127q0 4 2 6.5t4 3.5h2l121 -6l8 -10q-8 -59 -16 -137q128 -26 208 -89.5t80 -158.5q2 -76 -49.5 -127t-142.5 -51q-48 0 -92.5 12.5t-51.5 24.5q-4 7 -4.5 18 t1 31.5t1.5 34.5q0 61 -25.5 89.5t-76.5 26.5q-42 -1 -67 -32t-25 -64q0 -27 13 -49.5t29.5 -36.5t52.5 -29t59.5 -22.5t74.5 -22.5q18 -5 27 -8q67 -20 119 -43.5t102 -60t77.5 -89.5t27.5 -120t-28 -122.5t-76.5 -93.5t-107.5 -63t-128 -39l18 -127q1 -4 -0.5 -6.5 t-3.5 -3.5h-2l-121 -6q-10 0 -10 10q4 37 4 119q-20 -2 -60 -2h-32l4 -117l-8 -10l-121 6l-8 10q6 53 14 123q-63 12 -116.5 31t-100.5 49t-74 74.5t-27 99.5z" />
<glyph unicode="%" horiz-adv-x="1515" d="M8 782q0 120 83.5 200.5t221.5 80.5l901 -4q1 0 2 -0.5t3 -2t-2 -5.5q-185 -354 -258 -500t-96 -208.5t-23 -111.5q0 -40 11.5 -81t19.5 -65.5t1 -35.5q-39 -36 -84 -57t-87.5 -26t-83.5 4t-74 29.5t-57 54.5t-34.5 75.5t-5 95.5t30.5 113l281 567h-164q27 -62 27 -123 q0 -121 -82 -199.5t-226 -78.5q-139 0 -222 79t-83 199zM258 782q0 -125 55 -125q60 0 60 125t-60 125q-30 0 -42.5 -30t-12.5 -95zM895 242q0 120 83.5 200t221.5 80q144 0 225.5 -79t81.5 -201q0 -121 -82 -200t-225 -79q-139 0 -222 79.5t-83 199.5zM1145 242 q0 -125 55 -125q60 0 60 125t-60 125q-30 0 -42.5 -30t-12.5 -95z" />
<glyph unicode="&#x26;" horiz-adv-x="1259" d="M10 258q0 215 250 281q-188 52 -188 217q0 71 33 127.5t84.5 91.5t121 57.5t136.5 31.5t137 9q56 0 113 -7t120.5 -25t111.5 -46t79.5 -74t31.5 -104q1 -71 -60.5 -110t-150.5 -39q-47 0 -92 11.5t-53 22.5q-4 7 -4.5 11t0 7t1.5 13t1 23q0 59 -29.5 83.5t-85.5 24.5 q-52 0 -81 -34t-29 -82q0 -45 28 -83t84 -38h6h3h677q7 -1 7 -11v-186l-9 -10h-215v-8q0 -70 4 -99q5 -35 20 -60.5t32.5 -38.5t45.5 -20t48 -8.5t49 -1.5q23 0 29 -16.5t-4 -36.5q-41 -86 -117 -136t-180 -50q-185 0 -254 170q-45 -62 -116 -103t-148 -55.5t-155.5 -3 t-140.5 47t-101.5 102.5t-39.5 155zM440 279q0 -48 23.5 -77.5t73.5 -25.5q62 3 101 68.5t32 173.5h-78q-77 0 -114.5 -45t-37.5 -94z" />
<glyph unicode="'" horiz-adv-x="421" d="M31 1358q0 74 52.5 127t127.5 53q73 0 126.5 -55t53.5 -137q0 -70 -25 -131.5t-63 -100.5t-71.5 -62.5t-61.5 -33.5q-94 -34 -94 4q0 18 33 47q36 34 51.5 58.5t12 38.5t-22.5 20q-54 22 -86.5 67.5t-32.5 104.5z" />
<glyph unicode="(" horiz-adv-x="442" d="M20 565q0 124 19.5 242.5t50.5 208t68.5 169.5t75.5 135t69 95t51 59l19 19q25 30 39.5 27t5.5 -39q-5 -13 -12.5 -37.5t-27.5 -111t-35 -184.5t-27.5 -258t-12.5 -331q0 -158 12 -307t28.5 -249t33.5 -177.5t29 -113.5l12 -36q8 -34 -5.5 -38t-39.5 26q-7 7 -20 19.5 t-49.5 56.5t-70 94t-74 130.5t-70 166t-49.5 200t-20 234.5z" />
<glyph unicode=")" horiz-adv-x="483" d="M45 -303q5 12 12.5 35.5t27.5 105t35 174t27.5 241t12.5 306.5q0 171 -12 329t-28.5 261.5t-33.5 182t-29 114.5l-12 35q-9 36 5.5 39t39.5 -27q7 -7 20 -19.5t49.5 -58t69.5 -96.5t74 -133.5t70 -170.5t49 -207t20 -243q0 -120 -19.5 -233t-50.5 -198.5t-68.5 -160.5 t-75 -126.5t-68.5 -89t-50 -55.5l-20 -17q-26 -30 -39.5 -26t-5.5 38z" />
<glyph unicode="*" horiz-adv-x="733" d="M24 1238.5q-5 24.5 1 49t28 40.5t51.5 21.5t71.5 -8.5q60 -20 119 -65q-27 79 -27 135q0 48 20.5 81.5t49 41t57.5 0t49.5 -41t20.5 -81.5q0 -60 -25 -133q51 41 117 63q42 14 71.5 8.5t51.5 -21.5t28 -40.5t1 -49t-29 -47.5t-62 -36q-65 -19 -129 -16q62 -47 95 -90 q23 -33 28.5 -65.5t-4 -56t-30.5 -38.5t-46.5 -17t-54.5 13.5t-53 48.5q-37 50 -57 123q-18 -63 -58 -123q-24 -33 -53 -48.5t-54.5 -13.5t-46 17t-30.5 38.5t-4 56t29 65.5q39 51 94 90q-64 -3 -129 16q-38 13 -62 36t-29 47.5z" />
<glyph unicode="+" horiz-adv-x="956" d="M47 434v172q0 10 10 10h322l2 322l8 10h178q8 0 8 -10v-322h324l10 -8v-176q0 -6 -8 -6q-21 0 -82.5 -0.5t-123.5 -0.5t-120 1v-324l-6 -10h-182q-8 0 -8 8v326h-322z" />
<glyph unicode="," horiz-adv-x="462" d="M31 164q0 83 58.5 142t141.5 59t142 -61t59 -152q0 -64 -19 -122t-47 -97.5t-63.5 -72t-64 -49.5t-52.5 -26q-104 -36 -104 6q0 19 35 51q40 38 57.5 65.5t14 43t-24.5 22.5q-60 24 -96.5 75t-36.5 116z" />
<glyph unicode="-" horiz-adv-x="753" d="M61 430v176q3 10 13 10h608q4 0 6 -2t2 -4v-2v-180q0 -6 -8 -6h-610q-4 0 -6.5 2t-3.5 4z" />
<glyph unicode="." horiz-adv-x="462" d="M31 164q0 83 58.5 142t141.5 59t142 -59t59 -142t-59 -142t-142 -59t-141.5 59t-58.5 142z" />
<glyph unicode="/" horiz-adv-x="833" d="M2 -350l621 1823l12 10h172q1 0 2 -0.5t3 -2.5t-1 -7q-583 -1719 -616 -1823q-2 -4 -5 -6t-6 -2h-2h-174h-2q-2 -1 -3.5 1.5t-0.5 6.5z" />
<glyph unicode="0" horiz-adv-x="1124" d="M25 569q0 117 34 225.5t98.5 196t168 140.5t231.5 53q102 0 190.5 -34.5t151 -94t107.5 -138t66.5 -167.5t21.5 -181q0 -118 -33.5 -226t-97.5 -196.5t-169 -141t-237 -52.5q-103 0 -191 34.5t-149.5 94t-105.5 138t-65 167.5t-21 182zM426 569q0 -401 131 -401 q30 0 53 16.5t37.5 48.5t24 68t13.5 86t5.5 90t1.5 92q0 79 -4.5 139.5t-17.5 125.5t-41.5 101t-71.5 36q-34 0 -58.5 -25.5t-38 -63.5t-21.5 -95.5t-10.5 -106.5t-2.5 -111z" />
<glyph unicode="1" horiz-adv-x="561" d="M14 1051q-7 15 5 25t42 16l433 96q6 0 6 -10v-1168l-8 -10h-396q-8 0 -8 10v819q0 63 -10.5 108.5t-23 63t-25.5 31.5t-15 19z" />
<glyph unicode="2" horiz-adv-x="1013" d="M23 913q0 59 32 107t81 78t113 50t123.5 28t116.5 8q89 0 175.5 -19t163 -56t123 -101.5t46.5 -147.5q0 -62 -31 -125.5t-80.5 -115t-109.5 -100t-119.5 -84.5t-109 -63t-80.5 -41l-31 -14l-6 -2q209 2 531 2q4 0 6 -2t2 -4v-2v-301q2 -8 -8 -8h-900l-10 8v299q0 6 6 8 q90 36 214.5 134.5t220.5 216t96 190.5q0 50 -24 84.5t-77 34.5t-86.5 -33.5t-33.5 -93.5q0 -14 1.5 -34.5t1 -31.5t-4.5 -18q-8 -13 -54.5 -25t-95.5 -12q-85 0 -139.5 55t-52.5 131z" />
<glyph unicode="3" horiz-adv-x="1019" d="M20 221q0 83 54 137t139 54q50 0 97 -13t55 -26q4 -9 4.5 -21.5t-1 -35t-1.5 -37.5q0 -57 30 -86t78 -29q52 0 88.5 41.5t36.5 99.5q0 31 -8.5 59.5t-30 58.5t-67 48t-109.5 18h-70q-8 1 -8 11v164q0 8 4 8l283 149h-516q-4 0 -6 2t-2 4v2v299q0 9 10 9h881l10 -7v-301 q0 -6 -4 -8l-314 -166l-2 -2q66 -10 125 -33.5t110.5 -62t82 -98t30.5 -131.5q0 -82 -31.5 -148t-82.5 -107.5t-119.5 -69t-137 -39t-139.5 -11.5q-53 0 -110.5 7.5t-123 26.5t-116.5 48t-85 77.5t-34 108.5z" />
<glyph unicode="4" horiz-adv-x="1056" d="M23 158v276q0 4 2 6q97 87 184 188.5t142 181.5t99 156.5t61.5 113.5t23.5 53v2l8 4h356q8 -1 8 -11v-534v-137h121l10 -8v-291q0 -8 -10 -8h-121v-144l-8 -10h-381l-8 10q0 58 -2 144h-475zM317 459h195v256q-4 -5 -27 -38t-45.5 -63.5t-57 -74.5t-65.5 -80z" />
<glyph unicode="5" horiz-adv-x="1021" d="M31 221q0 83 53.5 137t138.5 54q49 0 96.5 -13t53.5 -26q5 -9 6 -21t-0.5 -35.5t-1.5 -37.5q0 -57 30 -86t78 -29q50 0 83.5 41.5t33.5 99.5q0 45 -12 77t-44.5 60.5t-88.5 41t-143 17t-210 -11.5h-12q-8 1 -8 11v98v231v80v219q0 9 10 9h854q4 0 6 -1.5t2 -3.5v-2v-301 q0 -8 -8 -8h-629v-131q144 29 269 15t216.5 -58.5t144 -127.5t52.5 -191q0 -82 -31 -148t-80.5 -107.5t-116.5 -69t-134.5 -39t-138.5 -11.5q-53 0 -111 7.5t-123.5 26.5t-116.5 48t-84.5 77.5t-33.5 108.5z" />
<glyph unicode="6" horiz-adv-x="1050" d="M27 578q2 171 67 309.5t188.5 220.5t284.5 80q90 -1 169.5 -26.5t130.5 -65t80.5 -86t29.5 -90.5q0 -76 -49 -126t-140 -49q-47 0 -91.5 13.5t-49.5 23.5q-4 8 -4.5 19.5t1 31t1.5 31.5q0 117 -80 117q-129 3 -133 -293q144 40 256.5 27t189 -65t116 -128t38.5 -162 q0 -69 -19.5 -128t-51 -99.5t-73.5 -72.5t-85 -51.5t-89.5 -32t-83 -17t-67.5 -4.5q-127 1 -229.5 51t-169.5 134.5t-102.5 197t-34.5 240.5zM432 512q0 -145 28 -238.5t93 -93.5q33 0 56.5 23.5t34 57.5t15 63t3.5 49q-2 40 -14 70.5t-39 53t-70 25.5t-107 -10z" />
<glyph unicode="7" horiz-adv-x="921" d="M6 829v299q0 9 10 9h881l10 -7v-301q0 -6 -4 -8q-14 -8 -36.5 -22.5t-80 -63t-102 -100.5t-81.5 -131.5t-38 -159.5q0 -91 29 -141q16 -28 37 -46t35.5 -23.5t23 -14t4.5 -21.5q-19 -51 -93 -98t-155 -47q-127 0 -214 83t-87 230q0 83 35 163t83.5 138t115 113t113.5 85 t96 56h-572z" />
<glyph unicode="8" horiz-adv-x="1085" d="M31 322q0 98 64.5 166t166.5 100q-92 24 -147.5 91.5t-55.5 164.5q0 91 39 159t107.5 107t150 57.5t176.5 18.5h21q94 0 176.5 -19.5t150 -59.5t107 -107.5t39.5 -155.5q0 -96 -56 -164t-147 -92q102 -32 167 -100t65 -166q0 -80 -29 -144t-77.5 -105.5t-114.5 -69 t-135.5 -39t-145.5 -11.5h-21q-76 0 -145.5 11.5t-135 39t-114 69t-77.5 105.5t-29 144zM430 338q0 -71 30.5 -113.5t80.5 -42.5q51 0 81.5 42t30.5 114q0 62 -31.5 113t-80.5 51q-47 0 -79 -51t-32 -113zM430 823q0 -57 32 -105t79 -48q48 0 79 47.5t31 105.5q0 64 -30 106 t-80 42q-49 0 -80 -42.5t-31 -105.5z" />
<glyph unicode="9" horiz-adv-x="1044" d="M23 780q-1 97 32 172t82 117.5t114.5 69.5t121 36t110.5 9q168 0 290 -84.5t181.5 -223t59.5 -313.5q0 -287 -141 -448.5t-390 -161.5q-170 0 -288.5 72t-124.5 178q-3 80 46.5 141.5t137.5 61.5q48 1 93 -11.5t52 -23.5q4 -8 4.5 -19.5t-1 -31.5t-1.5 -33 q0 -52 21 -87.5t70 -35.5q36 0 60.5 25t36.5 70.5t16.5 94.5t4.5 113q-181 -61 -311.5 -25.5t-203 128.5t-72.5 210zM377 772q10 -178 231 -119q14 292 -127 289q-32 -1 -55 -20.5t-33 -48.5t-14 -55t-2 -46z" />
<glyph unicode=":" horiz-adv-x="462" d="M31 164q0 83 58.5 142t141.5 59t142 -59t59 -142t-59 -142t-142 -59t-141.5 59t-58.5 142zM31 711q0 83 58.5 141.5t141.5 58.5t142 -58.5t59 -141.5t-59 -142t-142 -59t-141.5 59t-58.5 142z" />
<glyph unicode=";" horiz-adv-x="462" d="M31 164q0 83 58.5 142t141.5 59t142 -61t59 -152q0 -64 -19 -122t-47 -97.5t-63.5 -72t-64 -49.5t-52.5 -26q-104 -36 -104 6q0 19 35 51q40 38 57.5 65.5t14 43t-24.5 22.5q-60 24 -96.5 75t-36.5 116zM31 711q0 83 58.5 141.5t141.5 58.5t142 -58.5t59 -141.5t-59 -142 t-142 -59t-141.5 59t-58.5 142z" />
<glyph unicode="=" horiz-adv-x="1024" d="M59 236v176q3 10 13 10h874q4 0 6 -2t2 -4v-2v-181q0 -6 -8 -6h-876q-4 0 -6.5 2.5t-3.5 4.5zM59 584v176q3 10 13 10h874q4 0 6 -2t2 -4v-2v-180q0 -7 -8 -7h-876q-4 0 -6.5 2.5t-3.5 4.5z" />
<glyph unicode="?" horiz-adv-x="612" d="M-131 1231q1 54 32.5 107.5t86.5 96.5t137.5 70t177.5 27q104 0 190.5 -29.5t140 -78t82.5 -106t29 -116.5q0 -56 -22.5 -111.5t-52.5 -97t-76.5 -108.5t-77.5 -125q-14 -26 -37 -77t-40.5 -85.5t-41 -72t-51 -57t-57.5 -19.5q-44 0 -82 50t-56.5 124t-11.5 143 q6 57 30.5 112.5t55 100t61 85.5t51 84t21.5 81q2 37 -14.5 69.5t-58.5 32.5q-23 0 -39 -12t-23.5 -34t-10 -41.5t-3.5 -45.5q0 -12 1.5 -37t1 -40.5t-4.5 -22.5q-7 -10 -56.5 -23t-97.5 -14q-91 0 -138.5 48t-45.5 122zM96 164q0 83 59 142t142 59t142 -59t59 -142 q0 -85 -59 -144t-142 -59t-142 59t-59 144z" />
<glyph unicode="@" horiz-adv-x="1472" d="M20 514q0 144 55 275t149.5 226.5t227.5 151.5t281 56q202 0 365.5 -81t259 -233t92.5 -348q-1 -99 -38 -183.5t-94.5 -139t-127.5 -85t-141 -30.5q-47 0 -88 15t-65 35t-44 46.5t-27 41.5t-12 28q-37 -73 -94.5 -116.5t-128.5 -43.5q-85 0 -150 58t-96 144.5t-31 184.5 q0 100 31 185.5t97 141.5t155 56q137 0 213 -135v98q0 4 1.5 6t3.5 2h1h285q6 0 6 -6l-10 -438q5 -41 25.5 -65.5t54.5 -24.5q54 0 91.5 67t37.5 162q0 76 -20.5 150t-65.5 143.5t-109.5 122.5t-160.5 85t-210 32q-128 0 -237.5 -51t-181.5 -134.5t-112 -188.5t-40 -216 q0 -121 36.5 -220.5t95.5 -164t135.5 -109t152.5 -63.5t151 -19q58 0 112.5 5.5t92.5 14t73.5 18t55.5 18t39.5 14t25 6t11.5 -5.5q2 -7 -8 -27.5t-39.5 -49.5t-73.5 -55.5t-122 -45.5t-173 -19q-148 0 -281 56t-227.5 151.5t-149.5 226.5t-55 275zM604 516q0 -83 28 -137.5 t79 -54.5t78.5 54.5t27.5 137.5q0 84 -28 138.5t-78 54.5q-51 0 -79 -55t-28 -138z" />
<glyph unicode="A" d="M10 3q-1 1 -1 2q0 2 3 5q353 1102 353 1104q32 93 32 138q0 9 -1 16q-8 42 -27.5 69.5t-14.5 42.5q20 58 110 100t183 42q119 0 221.5 -81t159.5 -241q38 -108 131 -405.5t167 -540.5l73 -244q1 -3 1 -5v-2q-2 -2 -4 -3h-3h-463q-10 0 -12 10l-52 217h-362l-45 -217 q-1 -3 -3 -5t-4 -3t-4 -1.5t-3 -0.5h-1h-428q-1 0 -2.5 0.5t-3.5 2.5zM561 504h240l-121 594q-21 -86 -63.5 -309t-55.5 -285z" />
<glyph unicode="B" horiz-adv-x="1320" d="M61 551v1v1v1v1v1v1v1v1v1v1v1v1v1v1v1v1v1v1v1v1v1v1v1v1v1v1v1v1v1v1v1v1v1v1v1v1v1v1v1v1v1v1v1v1v1v1v1v1v1v1v1v1v1v1v1v1v1v1v1v1v1v1v1v1v1v1v1v1v1v1v1v1v1v1v1v1v1v1v1v1v1v1v1v1v1v1v1v1v1v1v1v1v1v1v1v1v1v1v1v1v1v1v1v1v1v1v1v1v1v1v1v1v1v1v1v1v1v1v1v1v2v1 v1v1v1v1v1v1v1v1v1v1v1v1v2v1v1v1v1v1v1v1v1v1v2v1v1v1v1v1v1v1v2v1v1v1v1v1v1v2v1v1v1v1v1v1v2v1v1v1v1v1v2v1v1v1v1v1v2v1v1v1v1v2v1v1v1v1v2v1v1v1v2v1v1v1v1v2v1v1v1v2v1v1v1v2v1v1v1v2v1v1v1v2v1v1v1v2v1v1v1v2v1v1v2v1v1v1v2v1v1v2v1v1v1v2v1v1v2v1v1v2v1v1v2v1v1v1v2 v1v1v2v1v1v2v1v2v1v1v2v1v1v2v1v1v2v1v1v2v1v1v2v1v2v1v1v2v1v1v2v1v2v1v1v2v1v2v1v1v2v1v2v1v1v2v1v2v1v1v2v1v2v1v2v1v1v2v1v2v1v2v1v1v2v1v2v1v2v1v2v1v2v1v1v2v1v2v1v2v1v2v1v2v1v2v1v2v1v2v1v1v2v1v2v1v2v1v2v1v2v1v2v1v2v1v2v1v2v2v1v2v1v2v1v2v1v2v1v2v1v2v1v2v1v2v2 v1v2v1v2v1v2v1v2v1v2v2v1v2v1v2v1v2v2v1v2v1v2v1v2v2v1v2v1v2v2v1v2v1v2v2v1v2v1v2v2v1v2v1v2v2v1v2v1v2v2v1v2v2v1v2v1v2v2v1v2v2v1v2v2v1v2v1v2v2v1v2v2v1v2v2v1v2v2v1v2v2v1v2v2v1v2v2v1v2v2v1v2v2v2v1v2v2v1v2v2v1v2v2v2v1v2v2v1v2v2v1v2v2v2v1v2v2v2v1v2v2v1v2v2v2v1v2 v2v2v1v2v2v2v1v2v2v2v1v2v2v2v1v2v2v2v1v2v2v2v2v1v2v2v2v1v2v2v2v2v1v2v2v2v2v1v2v2v2v2v1v2v2v2v2v1v2v2v2v2v2v1v2v2v2v2v2v1v2v2v2v2v2v1v2v2v2v2v2v2v1v2v2v2v2v2v2v1v2v2v2v2v2v2v2v1v2v2v2v2v2v2v2v2v2v1v2v2v2v2v2v2v2v2v2v2v2v1v2v2v2v10q0 12 11 12 q25 7 70.5 17.5t188.5 28t290 17.5q84 0 160.5 -10t154.5 -36t134.5 -66.5t92 -106t35.5 -149.5q0 -100 -53.5 -187t-116.5 -112q-3 -2 -4 -4.5t0.5 -5t5.5 -3.5q129 -45 199.5 -150t70.5 -220q0 -130 -53.5 -229.5t-145 -158t-204 -87.5t-240.5 -29q-132 0 -237.5 37.5 t-171 97.5t-109 140t-61 159.5t-17.5 161.5zM510 403q3 -87 44.5 -144.5t131.5 -57.5q84 0 131 59t47 160q0 136 -104 206q-74 50 -170 50q-38 0 -80 -8v-265zM510 893q135 0 199.5 62t64.5 153q0 53 -18 91t-46 57t-64 27q-30 7 -59 7h-11q-34 -2 -66 -10v-387z" />
<glyph unicode="C" horiz-adv-x="1314" d="M20 739q0 152 52.5 292t145 245.5t228 168.5t291.5 64h13q232 -1 381 -103q153 -106 153 -271q0 -57 -25 -109t-78.5 -88.5t-123.5 -36.5q-68 0 -114.5 21.5t-43.5 52.5q5 36 5 70q0 32 -4 61q-10 60 -48.5 102.5t-103.5 42.5q-66 0 -121.5 -53.5t-87 -133t-44.5 -171.5 q-7 -52 -7 -100q0 -37 4 -70q16 -127 63.5 -222t113 -146t145.5 -73q54 -15 109 -16q25 0 51 4q82 10 160.5 44.5t141.5 91.5q40 34 39 -10l-6 -38q-7 -31 -25.5 -72.5t-63.5 -100.5t-105.5 -107t-160.5 -83.5t-219 -37.5h-14q-143 0 -269 60q-134 63 -228 169.5t-149 251.5 t-55 301z" />
<glyph unicode="D" horiz-adv-x="1345" d="M61 27v1405q0 12 11 12q21 6 60.5 15.5t175 25.5t284.5 16q164 0 303 -60.5t233.5 -164.5t147.5 -245.5t53 -301.5q0 -163 -48.5 -303t-139 -246t-232 -166.5t-317.5 -60.5q-149 0 -279 15t-185 30l-56 16q-1 0 -3.5 1t-5 4t-2.5 8zM512 178h15q83 0 149 42 q72 46 114.5 126.5t64.5 180.5t22 212q0 77 -13 155t-41.5 153t-70.5 130t-104 83q-45 21 -96 21q-20 0 -40 -3v-1100z" />
<glyph unicode="E" horiz-adv-x="1107" d="M61 512l2 944l13 10h977q12 0 16 -10q2 -5 4 -14t6 -36t3.5 -53.5t-9 -61.5t-26 -65t-52 -59.5t-82.5 -48.5q-67 -26 -165 -27h-15q-88 0 -148 11l-65 12q0 -13 -1 -111.5t-1 -158.5h338l7 -2q4 -3 3 -8v-205q0 -4 -3 -7t-6 -4h-3h-338v-147q2 -76 44 -123t105 -61 q49 -11 104 -11q15 0 31 1q72 4 137.5 24.5t109.5 48.5q31 19 43 4q8 -10 8 -31q0 -10 -2 -22q-5 -34 -26.5 -76t-64.5 -90.5t-99.5 -88t-140.5 -65.5t-179 -26q-127 0 -229 46.5t-165.5 125.5t-97 177.5t-33.5 207.5z" />
<glyph unicode="F" horiz-adv-x="1079" d="M61 313l2 1141l11 10h975q12 0 16 -10q2 -5 5 -14q2 -10 6 -36q3 -23 3 -45q-1 -3 -1 -7q0 -26 -8 -61t-25.5 -64.5t-52 -60t-83.5 -50.5q-69 -28 -167 -29h-13q-89 0 -149 12l-64 13q0 -14 -1 -104t-1 -154h334h1.5t3 -0.5t4 -2t3 -4t0.5 -5.5v-217q0 -4 -3.5 -7 t-6.5 -4h-4h-334v-182q3 -90 20 -150.5t38 -83.5t41 -35t30.5 -19.5t5.5 -22.5q-20 -59 -103 -112.5t-171 -53.5q-64 0 -119 20.5t-99 62.5t-69 112.5t-25 162.5z" />
<glyph unicode="G" horiz-adv-x="1345" d="M29 741q0 153 52.5 293t145 246t228.5 169t293 64h13q233 0 382 -103q153 -105 153 -271q0 -91 -61.5 -163.5t-165.5 -72.5q-69 0 -116 21.5t-44 52.5q5 36 5 70q0 32 -4 61q-10 61 -48.5 104t-103.5 43q-66 0 -119.5 -53t-84 -134t-44.5 -172q-9 -66 -9 -127 q0 -22 1 -44q2 -32 6.5 -63.5t16 -81t29 -91t48 -86.5t69.5 -75.5t97 -49.5q53 -16 115 -16h14q5 58 5 103q0 35 -3 62q-7 61 -21.5 95.5t-30.5 49t-24.5 26t-3.5 25.5q20 53 93.5 99t156.5 46q124 0 195 -83t71 -228q0 -160 -16 -291q0 -17 -12 -25l-22 -16 q-22 -16 -33 -23t-39.5 -25.5t-52.5 -29t-60 -26.5t-73 -25.5t-81.5 -19.5t-95.5 -14.5t-105 -4.5q-150 0 -283.5 63t-228 169.5t-149.5 250.5t-55 301z" />
<glyph unicode="H" horiz-adv-x="1406" d="M-8 1370q18 53 102 102.5t170 49.5q60 0 111.5 -19.5t92.5 -58t65 -103.5t24 -149q0 -27 -1 -139t-1 -158h356l-4 557l11 10h425l7 -2q3 -3 2 -8l-2 -1442l-11 -10h-424l-8 10l4 590h-360l2 -590l-10 -10h-422l-8 10q4 1118 4 1120q-6 68 -23.5 113t-36 62.5t-36 27.5 t-25.5 17q-5 4 -6 11q0 4 2 9z" />
<glyph unicode="I" horiz-adv-x="636" d="M-8 1364q20 53 106 101t174 48q62 0 115 -19t96 -57t67.5 -102.5t24.5 -148.5v-1176l-10 -10h-436l-8 10q-1 470 -1 748t1 363v1q-6 68 -23.5 113t-37 63t-37.5 28q-18 8 -27 16q-6 5 -6 13q0 4 2 9z" />
<glyph unicode="J" horiz-adv-x="958" d="M10 238q0 83 59.5 149t147.5 66q54 0 106.5 -13t57.5 -24q4 -17 1 -29t-9 -48t-6 -69q0 -131 71 -131q41 0 64.5 32.5t23.5 92.5q0 69 -37.5 175t-37.5 188v512q-3 60 -19 101t-35.5 57.5t-38.5 26.5t-29 18t-5 22q20 53 106 101t174 48q129 0 211 -81t82 -246 q0 -8 -0.5 -56t-1 -179t-0.5 -341q0 -174 -33.5 -300t-97.5 -202.5t-151.5 -112.5t-202.5 -36q-187 0 -293.5 83t-106.5 196z" />
<glyph unicode="K" horiz-adv-x="1417" d="M-8 1364q20 53 106 101t174 48q62 0 115 -19t96 -57t67.5 -102.5t24.5 -148.5v-334q80 0 140.5 58.5t84.5 140.5q15 52 15 108q0 33 -5 68q-14 94 -71 159q-14 15 16 45t91.5 56t124.5 26q126 0 208.5 -92.5t82.5 -222.5q0 -290 -308 -450q2 -9 8.5 -28.5t24 -62.5 t40 -87t59.5 -98.5t79.5 -100.5t102.5 -88.5t127 -67.5q10 -3 10 -22q0 -14 -5 -36q-21 -81 -89 -139q-59 -50 -135 -59q-31 -4 -61 -4q-70 1 -130 21q-85 28 -145.5 93t-101.5 153.5t-68 205.5q-15 60 -37 213q-6 -1 -58 -8v-623l-10 -10h-436l-8 10q-1 470 -1 748t1 363v1 q-6 68 -23.5 113t-37 63t-37.5 28q-18 8 -27 16q-6 5 -6 13q0 4 2 9z" />
<glyph unicode="L" horiz-adv-x="1083" d="M-8 1364q20 53 106 101t174 48q62 0 115 -19t96 -57t67.5 -102.5t24.5 -148.5v-867h35q69 0 126.5 3.5t95.5 9t69 13t48.5 15t30.5 14.5t19 12.5t10.5 9t8.5 3t10 -5.5q20 -15 34 -43t17 -57q3 -26 3 -50q0 -39 -8 -75q-14 -56 -45.5 -94.5t-77 -67t-99.5 -40.5 q-54 -11 -112 -15q-17 -1 -33 -1q-42 0 -84 7q-11 1 -97 12.5t-125.5 16t-119 9.5t-152.5 5l-8 10q-1 470 -1 748t1 363v1q-6 68 -23.5 113t-37 63t-37.5 28q-18 8 -27 16q-6 5 -6 13q0 4 2 9z" />
<glyph unicode="M" horiz-adv-x="1722" d="M-6 1370q20 53 115.5 102.5t193.5 49.5q57 0 106 -18t84 -42.5t72 -71t59.5 -82t57.5 -96.5q45 -78 96.5 -176t79.5 -156l29 -59l352 631q2 4 5.5 6.5t5.5 3.5h3h396l7 -2q4 -3 3 -8l6 -1442l-12 -10h-418l-7 2q-4 3 -3 8l6 656l39 211l-322 -611q-4 -8 -26 -8h-58 q-18 0 -21.5 1t-6.5 7l-336 617l39 -191l12 -682l-10 -10h-432l-9 3q-3 2 -2 7q15 1118 15 1120q-3 65 -18 110t-34 62.5t-36.5 28t-26.5 18.5q-6 5 -6 12q0 4 2 9z" />
<glyph unicode="N" horiz-adv-x="1425" d="M-6 1370q20 54 111 103t188 49q48 0 90.5 -14.5t73.5 -34.5t66 -58t57.5 -69t58.5 -84q216 -372 315 -586l-20 196l-10 582q-3 9 8 10h426q10 0 10 -10l-6 -1444q2 -9 -10 -10h-377h-2q-7 0 -12 10l-435 854l19 -170l18 -684l-10 -10h-438l-9 3q-3 2 -2 7 q13 1118 13 1120q-3 65 -18.5 109.5t-35 62.5t-38 28.5t-27.5 18.5q-6 5 -6 12q0 4 2 9z" />
<glyph unicode="O" horiz-adv-x="1454" d="M20 731q0 156 51 297.5t141.5 248t225 169.5t291.5 63q158 0 292.5 -63t225.5 -169.5t142 -248t51 -297.5q0 -157 -50 -298t-140 -246.5t-225 -167.5t-296 -62q-157 0 -291.5 62t-225 167.5t-141.5 246.5t-51 298zM483 731q0 -121 28.5 -244t86.5 -212t131 -89 q76 0 134.5 87t86 209t27.5 249q0 126 -28.5 249.5t-87 211.5t-132.5 88t-132 -88t-86 -211.5t-28 -249.5z" />
<glyph unicode="P" horiz-adv-x="1204" d="M53 311l2 1121l11 10q9 3 26.5 7.5t73.5 16.5t115.5 20.5t147.5 14.5q57 4 113 3q31 0 62 -1q120 -4 225 -36t186 -89t128 -145.5t47 -198.5q0 -50 -8.5 -98.5t-31 -101.5t-56.5 -98.5t-88.5 -86.5t-123.5 -69t-166 -42q-72 -11 -154 -11q-28 0 -58 1v-98 q3 -90 19.5 -150.5t37.5 -83.5t41 -35t30 -19.5t5 -22.5q-20 -59 -103.5 -112.5t-171.5 -53.5q-135 0 -222 89t-87 269zM504 739q117 0 188.5 89.5t71.5 209.5q0 118 -74 190q-59 58 -142 58q-21 0 -44 -4v-543z" />
<glyph unicode="Q" horiz-adv-x="1419" d="M20 733q0 157 48 297.5t134.5 247t218 169t288.5 62.5q158 0 290 -62.5t219 -169t135 -247t48 -297.5q0 -222 -88.5 -407t-249.5 -277q46 -65 88 -65q52 0 95.5 33t70.5 96q9 21 22 18q11 -2 28.5 -15t39.5 -37.5t39.5 -69.5t21.5 -101q1 -10 1 -19q0 -100 -69 -175 q-76 -81 -181 -89q-12 -1 -24 -1q-52 0 -98 14q-56 18 -95 48.5t-73 79t-56 94.5t-44 107q-52 -8 -120 -8q-126 0 -236.5 40t-192.5 112t-141 169t-89 212.5t-30 240.5zM485 733q0 -230 37 -342q53 16 102 16q131 0 238 -112q35 65 54.5 192.5t19.5 245.5q0 94 -13.5 187 t-39.5 175t-71.5 132.5t-102.5 50.5q-56 0 -100.5 -50.5t-70.5 -132.5t-39.5 -175t-13.5 -187zM563 289q61 -101 146 -101q12 0 18 2q-33 57 -71 83q-28 19 -64 19q-14 0 -29 -3z" />
<glyph unicode="R" horiz-adv-x="1298" d="M61 12v1418l11 10q9 3 26.5 7.5t73.5 16.5t116 20q59 8 147 14q57 4 113 4q31 0 62 -1q120 -4 224 -36t184 -89t126 -145.5t46 -198.5q0 -132 -72 -255.5t-215 -182.5q112 -264 389 -391q7 -2 7 -16q-1 -15 -9 -44q-16 -56 -73 -117t-144 -71q-28 -3 -54 -3 q-85 0 -156 32q-93 42 -152.5 128t-95 199t-46.5 250h-59v-549q0 -5 -2 -8t-4 -4h-2h-430q-11 0 -11 12zM510 772q118 0 186 83t68 202q0 117 -70 179q-54 48 -133 48q-24 0 -51 -4v-508z" />
<glyph unicode="S" horiz-adv-x="1304" d="M12 305q-1 8 -1 15q1 82 61 148q66 72 166 71q60 0 125 -20.5t77 -37.5q4 -13 3 -22.5t-5 -36.5t-4 -47q2 -120 92 -173q47 -28 99 -28q30 0 61 9q83 24 113 98q11 30 12 63q0 35 -17.5 66t-41.5 52.5t-69 45.5t-79 38.5t-94 39t-94 39.5q-142 63 -184 87 q-151 88 -191 218q-14 45 -16 96v18q0 94 46 178q51 92 136.5 153t192 97.5t214.5 38.5h31q147 0 269 -34q134 -38 216 -122.5t82 -203.5v-7q0 -102 -56 -163q-58 -63 -177 -63q-63 0 -114 16.5t-60 32.5q-2 13 -1 27.5t4.5 49.5t4.5 56v10q0 40 -14 72q-16 36 -43 56 q-28 20 -62 30q-22 7 -45 6q-13 0 -25 -2q-36 -6 -66.5 -22t-51 -48t-23.5 -74q0 -185 361 -294q70 -21 128 -45t120 -61.5t104.5 -82t70 -107t27.5 -135.5q0 -98 -42 -176.5t-109.5 -128.5t-158 -83t-181 -46.5t-185.5 -13.5q-75 0 -150 9t-156.5 34t-144.5 63t-106 101 t-49 143z" />
<glyph unicode="T" horiz-adv-x="1302" d="M14 1206q-1 12 -1 24q-1 31 5 63q8 45 43.5 93t96.5 80q70 37 160 46q48 5 96 5q42 0 84 -4q88 -8 270.5 -22t357.5 -16l134 2q12 -1 16 -11q2 -6 4.5 -16.5t7 -41.5t4.5 -60.5t-8 -68t-25.5 -69.5t-52.5 -59t-84 -43q-42 -13 -111 -14h-22q-55 0 -95 4l-48 6l12 -694 q3 -85 19.5 -142t37 -79t40 -33.5t29.5 -19t5 -21.5q-18 -55 -104 -105.5t-174 -50.5q-63 0 -116.5 19.5t-96.5 59t-67.5 106t-24.5 153.5l14 836h-35q-188 0 -338 -29q-4 -1 -7.5 1.5t-5.5 5.5l-1 3q-2 2 -9 26t-10 66z" />
<glyph unicode="U" horiz-adv-x="1429" d="M-8 1354q20 56 97.5 104.5t164.5 48.5q138 0 236 -90t98 -237v-785v-4q0 -47 17.5 -84t45 -56.5t60.5 -28.5q17 -5 34 -5q17 1 33 5q34 8 61 27.5t44.5 57t17.5 86.5v1059q0 4 2 7t4 4l2 1h451q8 -2 8 -10q-4 -516 -4 -791v-157v-6q0 -114 -40 -210 q-42 -98 -112.5 -162.5t-162.5 -109.5t-194 -55q-52 -5 -105 -5l-99 4q-102 10 -194.5 54t-164 107.5t-113.5 161.5t-42 215v2v524q0 81 -12 139.5t-29.5 86t-37.5 45.5t-36 23q-18 6 -26 14q-6 5 -5 12q0 4 1 8z" />
<glyph unicode="V" horiz-adv-x="1359" d="M61 578q2 0 2 874q0 4 3.5 7.5t6.5 4.5l3 2h442q8 -4 8 -16v-946q0 -123 40.5 -198t117.5 -75q89 0 151 118t62 345q0 103 -11.5 189.5t-30.5 144t-42 103t-45.5 73.5t-41.5 48t-30.5 35t-11.5 26q0 22 20.5 57t56.5 71t95 61.5t125 25.5q61 0 114.5 -23.5t100.5 -75 t80.5 -129t52.5 -191.5t19 -255q0 -110 -13 -212t-42 -206t-80 -189t-121.5 -151.5t-173.5 -103.5t-228 -37q-93 0 -181.5 22t-170.5 71.5t-143 120.5t-97.5 176.5t-36.5 232.5z" />
<glyph unicode="W" horiz-adv-x="2050" d="M61 569v883q0 5 2.5 8.5t5.5 4.5l3 1h438q14 -2 14 -16v-1038q0 -123 69 -169q28 -18 58 -18q29 0 59 17q71 39 90 142q5 29 5 62v1006q0 5 2 8.5t4 4.5l2 1h428q8 -4 8 -16v-979q0 -126 32 -193t108 -67q84 0 134 124t50 359q0 103 -11.5 189.5t-30.5 144t-42 103 t-45.5 73.5t-41.5 48t-30.5 35t-11.5 26q0 22 20.5 57t56.5 71t95 61.5t125 25.5q61 0 114.5 -23.5t100 -75t80 -129t52.5 -191.5t19 -255q0 -94 -8.5 -181.5t-30 -178.5t-54.5 -168.5t-84.5 -146.5t-117.5 -117.5t-157 -76.5t-199 -28q-282 0 -426 201q-110 -199 -391 -199 q-152 0 -266.5 84.5t-171 221.5t-56.5 304z" />
<glyph unicode="X" horiz-adv-x="1449" d="M6 281q-1 11 -1 22q1 148 117 282q124 144 333 206l-414 661q-6 14 10 14h518q4 0 8.5 -3t6.5 -6l2 -3l278 -543q56 35 80 89q19 43 18 88q0 11 -1 22q-6 55 -24.5 108.5t-40.5 89.5t-38 50q-2 3 -3 12t5.5 22.5t15.5 28.5t27 30.5t40 28.5t55 23t71 13q19 2 37 2 q125 0 215 -78q103 -90 117 -230q2 -17 2 -35q0 -143 -111 -273q-124 -146 -336 -212l441 -680q8 -10 -4 -10h-553q-4 0 -8 2.5t-5 5.5l-2 2l-287 541q-51 -39 -71 -91q-14 -38 -14 -74q0 -12 2 -24q7 -46 27 -92.5t40.5 -75.5t36.5 -44q6 -8 0 -30.5t-26 -50t-49.5 -53.5 t-76.5 -43.5t-100 -17.5q-133 0 -231 95t-107 231z" />
<glyph unicode="Y" horiz-adv-x="1368" d="M2 1460q1 3 4 4l4 2h492q10 0 14 -12l252 -625q41 62 67 135t36 135t13 125v45q0 34 -2 59q-4 42 -8 75.5t-4 35.5q0 29 61 56q67 30 144 30q26 0 54 -4q151 -18 205 -139q24 -52 26 -122q0 -70 -17 -137t-41 -119t-65.5 -106.5t-76 -90.5t-88.5 -80.5t-85.5 -67.5 t-83.5 -59v-174q3 -90 20 -150.5t38 -83.5t41 -35t30.5 -19.5t5.5 -22.5q-20 -58 -102.5 -110t-171.5 -52q-136 0 -223.5 87.5t-87.5 266.5q0 211 -2 307l-449 836q-1 3 -1 6q0 2 1 4z" />
<glyph unicode="Z" horiz-adv-x="1251" d="M14 1178q-1 13 -1 26q-1 33 5 67q8 48 44 98.5t98 82.5q72 38 166 46q39 3 78 4q56 0 114 -8q96 -12 291.5 -26t394.5 -14q13 0 17 -10l-2 -297q0 -9 -3.5 -18t-7.5 -14l-4 -5q-155 -202 -257 -345t-142 -199t-98 -120q-14 -16 -53.5 -47.5t-71.5 -55.5l-33 -24h219 q81 0 147.5 5.5t104.5 14t69.5 18.5t43 19t24.5 15t15 7t14 -5q20 -15 34 -43t17 -57q3 -25 3 -49q0 -40 -9 -76q-14 -56 -45.5 -94.5t-76.5 -67t-99 -40t-112 -15.5q-17 -1 -34 -1q-42 0 -84 7q-108 13 -340.5 28t-378.5 15l-8 10v289q0 24 19 45q14 18 175 244.5 t251 335.5q24 29 58 58.5t65.5 52t59.5 40.5t45 29l17 10q-112 7 -208 7q-88 0 -161 -6q-153 -12 -327 -46q-4 -1 -7.5 1.5t-5.5 5.5l-1 3q-2 2 -9 28t-10 71z" />
<glyph unicode="[" horiz-adv-x="624" d="M61 -358v1833q3 10 13 10h499q4 0 6.5 -2t2.5 -4v-2v-166q1 -8 -7 -8q-182 0 -317 2v-1493h315q4 0 6.5 -2t2.5 -4v-1v-165q1 -9 -7 -9l-503 2q-4 -1 -6.5 1.5t-3.5 5.5z" />
<glyph unicode="\" horiz-adv-x="833" d="M3 1480q1 2 3 2l2 1h172q11 0 13 -10q595 -1751 620 -1823q1 -4 -0.5 -6t-3.5 -2h-2h-174q-8 -2 -12 8l-617 1823q-2 5 -1 7z" />
<glyph unicode="]" horiz-adv-x="595" d="M36 -194q0 2 2.5 4t6.5 2h315v1493q-135 -2 -317 -2l-6 8v166q-2 8 8 8h500q4 0 7 -2.5t4 -4.5l1 -3v-1833q0 -1 -0.5 -3t-3 -4.5t-6.5 -1.5q-430 -2 -504 -2l-6 9v165z" />
<glyph unicode="_" horiz-adv-x="974" d="M51 -12q2 10 12 10h855q4 0 6 -2t2 -4v-2v-180q0 -7 -8 -7h-857q-4 0 -6.5 2.5t-2.5 4.5l-1 2v176z" />
<glyph unicode="`" horiz-adv-x="557" d="M8 1505q-5 11 4 17q102 121 264 161q9 3 13 -4q34 -139 90.5 -232t167.5 -204q8 -8 2 -14q-39 -65 -84 -101q-4 -2 -16 2q-304 107 -441 375z" />
<glyph unicode="a" horiz-adv-x="1263" d="M20 516q0 144 46 268.5t142 205.5t224 81q199 0 305 -194v141q0 4 2.5 7t5.5 4l3 1h409q8 -2 8 -10q-14 -467 -14 -608q0 -77 10 -132.5t25 -81.5t32 -43t30.5 -22t19.5 -13q4 -5 4 -11q0 -4 -2 -9q-16 -52 -89.5 -98.5t-156.5 -46.5q-107 0 -183 62.5t-96 170.5 q-56 -106 -138 -168.5t-185 -62.5q-93 0 -171 48.5t-127.5 128.5t-76.5 179t-27 203zM442 516q0 -120 40.5 -198t113.5 -78t113.5 78t40.5 198q0 121 -41 200t-113 79t-113 -79t-41 -200z" />
<glyph unicode="b" horiz-adv-x="1210" d="M61 10v1452q0 4 2.5 6t4.5 2h2h397h2h1l3 -2q2 -2 2 -6v-606q54 100 135 159.5t181 59.5q93 0 170.5 -48.5t126.5 -128.5t75.5 -179t26.5 -203q0 -107 -27 -205.5t-77 -177t-129.5 -125.5t-176.5 -47q-198 0 -305 195v-144q0 -4 -2.5 -7t-4.5 -4l-3 -1h-395q-9 2 -9 10z M463 516q0 -121 40.5 -199.5t112.5 -78.5t113 79t41 199t-40.5 198.5t-113.5 78.5q-72 0 -112.5 -78t-40.5 -199z" />
<glyph unicode="c" horiz-adv-x="1067" d="M20 516q0 148 70 273t194.5 201t278.5 83q88 0 168.5 -18t146.5 -52t105 -90.5t39 -126.5v-5q0 -75 -55 -136q-57 -63 -144 -63q-47 0 -91.5 12t-51.5 22q-4 8 -4.5 19t1 31t1.5 34q0 63 -27.5 102.5t-70.5 39.5q-53 0 -90 -50q-38 -50 -52 -124q-10 -50 -10 -102 q0 -25 2 -50q9 -105 54 -173t108 -93q59 -24 131 -24h9q76 2 149.5 26t138.5 63q16 12 29 2q8 -8 8 -20q0 -6 -2 -12q-9 -29 -30 -67t-62.5 -85t-93 -85.5t-128 -64.5t-161.5 -26q-153 0 -282 75t-203.5 203.5t-74.5 280.5z" />
<glyph unicode="d" horiz-adv-x="1243" d="M0 516q0 107 27 205.5t77 177t130 125.5t178 47q199 0 305 -194v585q0 4 2.5 7t4.5 3l3 1h410q8 -1 8 -9v-1050q0 -76 9 -132t22.5 -82t28 -43t26.5 -23q11 -4 17 -12q3 -4 3 -10q0 -5 -2 -10q-16 -52 -89.5 -98.5t-155.5 -46.5q-106 0 -181.5 62.5t-97.5 170.5 q-55 -107 -138 -170t-186 -63q-93 0 -171 48.5t-127 128.5t-76 179t-27 203zM420 516q0 -120 41 -198t114 -78t113.5 78t40.5 198q0 121 -41 200t-113 79q-73 0 -114 -79.5t-41 -199.5z" />
<glyph unicode="e" horiz-adv-x="1105" d="M20 516q0 112 42.5 213.5t117 177.5t185 121t239.5 45q81 0 152 -16t122.5 -44t92 -63.5t65 -76t37 -80t12.5 -76.5q0 -93 -41.5 -160.5t-107.5 -103.5q-66 -37 -152 -53q-79 -15 -158 -15q-7 1 -14 1q-85 2 -170 15q35 -100 129 -144q68 -32 152 -32q31 1 65 5 q123 16 248 85q15 11 27 2q13 -10 6 -32q-8 -28 -31 -67t-66.5 -85.5t-98 -85t-132.5 -64.5t-163 -26q-152 0 -280.5 75t-203 203.5t-74.5 280.5zM426 582q29 -3 55 -3q93 1 147 35q70 44 70 129q0 42 -31 72q-28 27 -69 27h-8q0 -2 -2 -2h-6q-25 -4 -50 -19 q-91 -55 -106 -239z" />
<glyph unicode="f" horiz-adv-x="837" d="M10 848v174q0 4 2 6t4 2h2h117q-1 19 -1 38q0 85 19 156q23 86 65.5 141t103 91t126 51t138.5 15q176 0 278.5 -69.5t102.5 -170.5v-5q0 -72 -52 -123q-54 -54 -137 -54q-48 0 -94 13t-53 24q-4 14 -1 21.5t9 35t6 57.5q0 45 -18 76t-60 31q-38 0 -60 -19t-26 -51 q-2 -19 -2 -38q0 -15 1 -30q3 -35 15 -75.5t21 -66t19 -48.5h282q8 0 8 -10v-172l-8 -10h-272v-826q0 -4 -2 -7t-4 -4l-2 -1h-396q-8 2 -8 10v828h-115q-8 0 -8 10z" />
<glyph unicode="g" horiz-adv-x="1220" d="M20 516q0 107 27 205.5t77 177t130 125.5t178 47q102 0 179.5 -53.5t127.5 -145.5v146l9 10h395q8 0 8 -10q6 -653 6 -903q1 -16 1 -31q0 -252 -140 -410q-149 -168 -426 -168q-85 0 -160 22t-124.5 53.5t-88.5 72t-59 72.5t-29 59q-15 47 -16 74.5t6 35t20 5.5 q12 -2 31 -19.5t44 -40.5t58.5 -46t87 -38.5t117.5 -15.5q116 0 187.5 77t76.5 177v182q-52 -100 -135 -156.5t-186 -56.5q-75 0 -140.5 31t-112.5 84.5t-81.5 124t-51 150.5t-16.5 163zM440 516q0 -119 41.5 -194.5t114.5 -75.5q72 0 113 75.5t41 194.5q0 120 -41.5 199.5 t-112.5 79.5q-73 0 -114.5 -79.5t-41.5 -199.5z" />
<glyph unicode="h" horiz-adv-x="1230" d="M61 1464q0 4 2.5 6t4.5 2l2 1h403l4 -2q2 -3 2 -7v-618q32 60 76 106t90 72t90 38.5t86 12.5q117 0 199 -94t82 -244v-319q0 -91 16 -151.5t37.5 -84.5t43 -36t33.5 -20q8 -5 8 -14q0 -4 -1 -8q-19 -51 -92.5 -97t-155.5 -46q-128 0 -214.5 85t-86.5 226v398 q0 94 -51 115q-13 5 -26 5q-32 0 -66 -33q-65 -65 -68 -189v-7v-549q0 -4 -2 -7t-4 -4l-2 -1h-395q-8 2 -8 10q-7 1233 -7 1454z" />
<glyph unicode="i" horiz-adv-x="585" d="M-8 930q18 53 92 99t156 46q126 0 205 -84t79 -227v-752q0 -4 -2 -7t-4 -4l-2 -1h-410q-10 2 -10 10q17 467 17 608q0 91 -14.5 151.5t-33.5 84t-38 35.5q-19 11 -29 19q-7 5 -8 14q0 3 2 8zM33 1321q0 78 69.5 134t167.5 56t169 -56t71 -134q0 -79 -70.5 -135 t-169.5 -56q-98 0 -167.5 56t-69.5 135z" />
<glyph unicode="j" horiz-adv-x="626" d="M-266 -283q0 78 54.5 140.5t135.5 62.5q48 0 94.5 -13t51.5 -24q4 -14 0.5 -25.5t-9.5 -44.5t-6 -63q0 -49 17 -86t57 -37q38 0 59 30t21 87q0 63 -34 161t-34 177v936q0 4 2.5 7t4.5 4l2 1h395q8 -2 8 -10v-954q0 -607 -453 -607q-172 0 -269 77t-97 181zM109 1321 q0 78 69.5 134t167.5 56q99 0 169.5 -56t70.5 -134q0 -79 -70 -135t-170 -56q-98 0 -167.5 56t-69.5 135z" />
<glyph unicode="k" horiz-adv-x="1230" d="M61 1464q0 4 2.5 6t4.5 2l2 1h401l6 -2q2 -3 2 -7v-600q60 105 153 158t193 53q83 0 149 -39t101 -98q35 -58 43 -130q2 -18 1 -36q0 -52 -16 -100q-22 -64 -82.5 -113t-150.5 -63v-4q4 -10 11 -26.5t36 -63.5t64.5 -89t98 -93t134.5 -85q27 -14 27 -25.5t-24 -41.5 q-39 -43 -117 -78t-158 -35q-72 0 -132.5 21t-102 54.5t-74 79.5t-51 92t-31 95.5t-17 86.5t-4.5 69q0 45 23 45q132 0 180 89q19 37 19 75q0 30 -12 62q-23 62 -75 74q-11 3 -22 3q-44 0 -76.5 -20t-50.5 -53.5t-26.5 -69t-10.5 -74.5v-572q0 -4 -2 -7t-4 -4l-2 -1h-395 q-8 2 -8 10q-7 1233 -7 1454z" />
<glyph unicode="l" horiz-adv-x="604" d="M61 266v1196q0 4 2.5 7t5.5 3l3 1h409q1 0 2.5 -0.5t4 -3.5t1.5 -7q3 -909 3 -1050q0 -77 10 -132.5t25 -81.5t31.5 -43t30.5 -22q15 -5 21 -13q4 -5 4 -11q0 -4 -2 -9q-18 -52 -99.5 -98.5t-164.5 -46.5q-127 0 -207 84.5t-80 226.5z" />
<glyph unicode="m" horiz-adv-x="1865" d="M-6 930q16 52 89.5 98.5t156.5 46.5q108 0 183 -62.5t97 -172.5q40 82 99.5 136.5t116.5 76.5t114 22q98 0 173 -65.5t99 -178.5q58 125 150 184.5t184 59.5q119 0 201 -94t82 -244v-319q0 -91 16 -151.5t37.5 -84.5t42.5 -36t33 -20q8 -5 8 -14q0 -4 -2 -8 q-19 -51 -92.5 -97t-155.5 -46q-127 0 -214 85t-87 226v398q0 96 -48 116q-11 4 -22 4q-31 0 -62 -35q-60 -67 -60 -194v-37q0 -59 4 -187t8 -227l4 -98q0 -4 -2.5 -7t-4.5 -4l-3 -1h-410q-1 0 -2.5 0.5t-4 3t-1.5 6.5l-2 514v146q0 96 -48 116q-11 5 -22 5q-30 0 -62 -35 q-61 -67 -61 -195v-549q0 -4 -2.5 -7t-5.5 -4l-2 -1h-410q-8 2 -8 10q15 467 15 608q0 77 -10 132.5t-25 81.5t-32 43t-30.5 22t-19.5 13q-4 5 -4 11q0 4 2 9z" />
<glyph unicode="n" horiz-adv-x="1273" d="M-8 930q16 52 89.5 98.5t156.5 46.5q108 0 184 -64t96 -175q43 83 105.5 139t122 78t118.5 22q119 0 201 -94t82 -244q0 -35 -1 -134t-1 -185q0 -91 16 -151.5t38 -84.5t43.5 -36t33.5 -20q8 -5 8 -14q0 -4 -2 -8q-19 -51 -92.5 -97t-155.5 -46q-127 0 -214 85t-87 226 v398q0 95 -52 116q-11 5 -23 5q-32 0 -67 -35q-65 -66 -67 -191v-4v-549q0 -4 -2.5 -7t-5.5 -4l-2 -1h-410q-8 2 -8 10q17 467 17 608q0 91 -14.5 151.5t-34 84t-38.5 35.5q-19 11 -29 19q-7 5 -7 13q0 4 2 9z" />
<glyph unicode="o" horiz-adv-x="1187" d="M20 510q0 152 74 279.5t206 202.5t294 75q121 0 228 -44t182.5 -119t119 -177.5t43.5 -216.5q0 -115 -42.5 -217.5t-117.5 -177t-182.5 -118.5t-230.5 -44q-162 0 -294 74.5t-206 202t-74 280.5zM424 510q0 -140 43 -233t127 -93q87 0 128.5 90t41.5 236q0 92 -17 163.5 t-56.5 117t-96.5 45.5q-58 0 -97.5 -46t-56 -117t-16.5 -163z" />
<glyph unicode="p" horiz-adv-x="1261" d="M-8 930q18 53 92 99t156 46q106 0 181 -62.5t97 -170.5q55 107 138 170t186 63q93 0 170.5 -48.5t126.5 -128.5t75.5 -179t26.5 -203q0 -107 -27 -205.5t-77 -177t-129.5 -125.5t-176.5 -47q-198 0 -305 195v-594q0 -4 -2.5 -7.5t-5.5 -4.5l-2 -1h-410q-1 0 -2.5 1 t-4 3.5t-1.5 6.5q-2 917 -2 1058q0 77 -9 132.5t-22 81.5t-27.5 43t-26.5 22t-17 13q-4 5 -4 11q0 4 2 9zM514 516q0 -120 41 -199t113 -79t112.5 78.5t40.5 199.5t-40.5 199t-112.5 78q-73 0 -113.5 -78.5t-40.5 -198.5z" />
<glyph unicode="q" horiz-adv-x="1196" d="M20 518q0 107 27 205.5t77 177t129.5 125.5t176.5 47q105 0 184 -56.5t129 -154.5v160q0 4 2.5 6t4.5 2h2h397h1q2 1 3.5 -1.5t1.5 -6.5v-1460q0 -4 -2 -7t-4 -3l-2 -1h-395q-9 1 -9 11q-2 251 -2 604q-54 -98 -136 -152.5t-185 -54.5q-93 0 -170.5 48.5t-126.5 128 t-76 178.5t-27 204zM440 518q0 -120 41 -199t113 -79t113 79t41 199t-40.5 198.5t-113.5 78.5t-113.5 -78.5t-40.5 -198.5z" />
<glyph unicode="r" horiz-adv-x="989" d="M-8 928q18 53 92 99t156 46q104 0 177.5 -59t96.5 -164q41 101 112 162t146 61q100 0 163.5 -61t63.5 -168q0 -123 -73.5 -193.5t-182.5 -70.5q-33 0 -64.5 15t-37.5 26q-5 8 -6 16t0.5 25.5t1.5 31.5q0 48 -10 69t-33 21q-41 0 -55.5 -60.5t-14.5 -170.5v-543l-8 -10 h-412q-8 0 -8 10q17 465 17 606q0 91 -14.5 151.5t-33.5 84t-38 35.5q-19 11 -29 19q-7 5 -8 14q0 3 2 8z" />
<glyph unicode="s" horiz-adv-x="1050" d="M20 219q0 77 56 132t143 55q50 0 99 -11.5t55 -23.5q5 -8 6 -19t-0.5 -32t-1.5 -33q0 -60 33.5 -92.5t87.5 -32.5q107 0 110 92q-1 20 -9 37t-25 31t-34 24.5t-47.5 21.5t-52.5 18t-61.5 18.5t-63.5 19.5q-55 20 -102 47t-87.5 64.5t-64 88.5t-24.5 109v6 q0 101 72.5 179.5t176 116.5t212.5 38q126 0 232.5 -27.5t178.5 -89.5t72 -149v-5q0 -72 -52 -122q-54 -51 -147 -51q-50 0 -95 12.5t-52 24.5q-4 7 -4.5 18t1 31.5t1.5 34.5q0 62 -26 90q-24 27 -72 26h-7q-44 -1 -70 -32t-26 -64q0 -44 37 -76t72.5 -45t122.5 -38l10.5 -3 t9 -3t10.5 -3q54 -16 98.5 -33t90 -44.5t77 -60t51 -78t19.5 -99.5q0 -72 -33 -130t-85.5 -95t-123 -62.5t-142 -36t-144.5 -10.5q-59 0 -120.5 8t-127.5 27.5t-117 49t-84 76.5t-33 105z" />
<glyph unicode="t" horiz-adv-x="778" d="M-10 848v174q0 4 2 6t4 2h2h104v156l11 10l393 162q1 0 2.5 -0.5t4 -3t1.5 -6.5q2 -144 2 -318h250q6 0 6 -10v-172l-8 -10h-248v-426v-33q0 -26 4 -66q6 -40 22 -67t32.5 -40.5t43.5 -19.5t45 -6t49 2t42 2q26 0 32 -16q2 -6 2 -12q0 -12 -8 -25q-41 -82 -142.5 -134 t-213.5 -52q-107 3 -182 47q-65 40 -102.5 110t-37.5 164v572h-104q-8 0 -8 10z" />
<glyph unicode="u" horiz-adv-x="1259" d="M-8 924q18 53 92 99t156 46q128 0 215.5 -85t87.5 -226v-398q0 -96 48 -116q10 -4 21 -4q31 0 62 35q57 64 61 180v563q0 4 2 7t4 4l2 1h412q8 -2 8 -10q-16 -467 -16 -608q0 -91 14.5 -151.5t33.5 -84t38 -35.5q19 -11 29 -19q7 -5 8 -14q0 -4 -2 -8q-18 -53 -92 -99 t-156 -46q-107 0 -182 63t-97 172q-60 -121 -149.5 -178t-181.5 -57q-117 0 -199 94t-82 244v319q0 91 -16 151.5t-37.5 84t-43.5 35.5q-21 11 -33 19q-8 5 -8 14q0 4 1 8z" />
<glyph unicode="v" horiz-adv-x="1122" d="M41 410h2v2v608q0 4 2 6.5t4 3.5h2h395q9 -2 9 -12v-631q0 -105 17.5 -151t66.5 -46q73 0 125.5 81t52.5 243q0 86 -13 154t-33 106.5t-43 67.5t-43 42.5t-33 25t-13 20.5q0 38 73.5 91.5t175.5 53.5q62 0 116 -25.5t99.5 -79t72 -148.5t26.5 -222q0 -45 -5.5 -95 t-22 -114t-42 -123t-69 -117.5t-99.5 -100.5t-137.5 -68.5t-179.5 -26.5h-12q-74 0 -144 16.5t-134 52.5t-112 88t-76 128.5t-28 169.5z" />
<glyph unicode="w" horiz-adv-x="1761" d="M41 403v7v4v606q0 4 2 6.5t4 3.5h2h400q10 -2 10 -12v-662q4 -87 34.5 -126.5t75.5 -39.5q46 0 78.5 50t32.5 147l2 -2q-2 8 -2 25h2v2v608q0 4 2 6.5t4 3.5h2h395q9 -2 9 -12v-631q0 -105 17.5 -151t66.5 -46q73 0 125.5 81t52.5 243q0 86 -13 154t-33 106.5t-43 67.5 t-43 42.5t-33 25t-13 20.5q0 38 73.5 91.5t175.5 53.5q62 0 116 -25.5t99.5 -79t72 -148.5t26.5 -222q0 -45 -5.5 -95t-22 -114t-42 -123t-69 -117.5t-99.5 -100.5t-137.5 -68.5t-179.5 -26.5h-12q-112 0 -214.5 38t-171.5 113q-114 -151 -321 -151q-157 0 -273 100.5 t-145 261.5q-8 36 -8 86z" />
<glyph unicode="x" horiz-adv-x="1187" d="M10 195v18q0 123 79 203q85 86 267 127l-333 477q-3 4 -0.5 7t6.5 3h444q9 0 16 -10l230 -348q45 13 59 42q7 14 7 30q-1 16 -7 32q-14 34 -33.5 65t-39 54.5t-19.5 29.5q0 51 64 95q66 46 149 45q121 0 196.5 -72.5t75.5 -179.5q0 -112 -96.5 -192t-243.5 -113l349 -496 q2 -3 2 -5v-3q-2 -4 -8 -4h-453q-11 0 -16 10l-230 355q-49 -13 -65 -43q-9 -17 -8 -36q0 -15 5 -30q13 -35 32.5 -68t39 -58.5t19.5 -32.5q0 -49 -64 -95q-66 -46 -149 -47q-122 0 -196 66.5t-79 173.5z" />
<glyph unicode="y" horiz-adv-x="1218" d="M-8 924q18 53 92 99t156 46q128 0 214.5 -85t86.5 -226v-385q0 -97 49 -117q10 -4 21 -4q32 0 65 37q59 66 61 190v539l8 10h396q8 0 8 -10q6 -602 6 -873q1 -17 1 -33q0 -114 -31 -212q-35 -111 -105.5 -192t-180.5 -126t-249 -45q-85 0 -160 22t-124.5 53.5t-89 71.5 t-59 72.5t-28.5 59.5q-15 47 -16.5 74.5t6 34.5t20.5 5q12 -2 31 -20t44 -41t58.5 -46.5t87 -39.5t117.5 -16q118 0 188.5 68t75.5 165v205q-40 -84 -99 -139.5t-116.5 -77t-115.5 -21.5q-117 0 -199 94t-82 244v307q0 91 -16 151.5t-37.5 84t-43 35.5t-33.5 19q-8 6 -8 14 q0 4 1 8z" />
<glyph unicode="z" horiz-adv-x="1015" d="M4 798v19q0 31 4 63q6 42 36 85.5t81 70.5q59 33 137 38l44 2q56 0 114 -10q81 -12 241 -27t326 -15q10 0 12 -8q0 -25 2 -76q2 -41 2 -75q-1 -8 -1 -16q0 -40 -5 -75q-14 -94 -122 -195.5t-271 -191.5q-118 -66 -194 -105h217q59 0 108.5 4.5t81 10.5t57.5 13.5t38 14.5 t24 13.5t15 10t10 4t10 -4.5q35 -28 43 -88q2 -22 3 -43q0 -47 -13 -87q-18 -58 -55.5 -92t-88.5 -56.5t-108 -24.5q-14 -1 -29 -1q-43 0 -86 5q-95 12 -284 25.5t-308 13.5h-2t-3 2t-1 6q-10 87 -10 154q0 44 4 80q6 53 54 116.5t119 121.5t139 104.5t132 81.5 q28 15 166 73q-87 6 -172 6q-232 0 -438 -43q-4 -1 -7 1.5t-4 4.5l-2 3q-2 2 -8 24.5t-8 62.5z" />
<glyph unicode="{" horiz-adv-x="434" d="M10 577.5q0 7.5 19 26.5q33 31 49 149.5t2 276.5l-2 31q-14 225 64.5 340.5t242.5 109.5q37 0 37 -18q2 -6 -19 -27q-34 -31 -49.5 -126.5t-1.5 -249.5l2 -31q11 -178 -35.5 -310t-142.5 -169q96 -37 142.5 -169t35.5 -311q-2 -20 -2 -32q-14 -154 1.5 -250.5 t49.5 -126.5q21 -21 19 -27q0 -15 -37 -18q-164 -6 -242.5 110t-64.5 340q2 21 2 31q14 160 -1.5 279.5t-49.5 146.5q-19 17 -19 24.5z" />
<glyph unicode="|" horiz-adv-x="323" d="M61 -350l2 1863q0 4 2.5 7t4.5 4h2h176q8 -1 8 -11v-1863q0 -4 -1.5 -6t-2.5 -2h-2h-180q-9 -2 -9 8z" />
<glyph unicode="}" horiz-adv-x="475" d="M33 -336q-2 7 18 27q34 30 49.5 126.5t1.5 250.5l-2 32q-11 178 36 310.5t143 169.5q-96 37 -143 169t-36 310q2 21 2 31q14 154 -1.5 249.5t-49.5 126.5q-20 20 -18 27q0 18 37 18q164 6 242.5 -109.5t64.5 -340.5q-2 -21 -2 -31q-14 -158 2 -276.5t49 -149.5 q19 -19 19 -26.5t-19 -24.5q-34 -27 -49.5 -146.5t-1.5 -279.5l2 -31q14 -224 -64.5 -340t-242.5 -110q-37 3 -37 18z" />
<glyph unicode="~" horiz-adv-x="1220" d="M70 551q16 90 105 137t218 8q36 -11 79 -31.5t77.5 -40t75.5 -38.5t77 -30.5t77 -11.5t79 15q39 15 67 44.5t41.5 52.5t18.5 24q27 7 59 -5.5t58.5 -37.5t40 -65t4.5 -83q-8 -39 -29 -71.5t-59 -58t-93 -30t-132 12.5q-37 9 -80 30t-77.5 43t-75.5 43t-76.5 33.5 t-77 11.5t-80.5 -20q-37 -18 -65.5 -47.5t-42.5 -51t-17 -22.5q-64 -16 -126 43t-46 146z" />
<glyph unicode="&#xa1;" horiz-adv-x="544" d="M20 -174q0 106 14 232.5t40.5 251.5t73.5 208.5t106 83.5q35 0 63.5 -34t46.5 -92.5t31.5 -124.5t21 -142.5t11 -132t4.5 -107.5q2 -76 13 -131.5t26 -81.5t31 -43t29.5 -22t19.5 -13t2 -20q-19 -51 -93 -98t-155 -47q-127 0 -206 84.5t-79 228.5zM45 887q0 85 59 144 t142 59t141.5 -59t58.5 -144q0 -83 -58.5 -142t-141.5 -59t-142 59t-59 142z" />
<glyph unicode="&#xa2;" horiz-adv-x="866" d="M20 516q0 164 104.5 287.5t268.5 152.5l-14 127q0 4 2 6t4 3h2h137q11 -1 11 -11q-11 -52 -15 -118q133 -13 224.5 -73.5t91.5 -158.5q0 -66 -41.5 -112t-126.5 -52q-38 -1 -74 10t-43 21q-7 12 0 68q4 46 -14 68.5t-48 25.5q-36 3 -60.5 -16.5t-37 -57t-17.5 -78.5 t-5 -92q0 -106 41 -169t106.5 -77t146 7.5t162.5 76.5q15 10 23 2q10 -10 6 -26q-8 -28 -31.5 -64.5t-63 -79t-103 -75t-136.5 -41.5l12 -136q1 -4 -1 -6.5t-5 -3.5h-2h-137q-8 3 -8 13q8 69 12 137q-159 28 -265 152.5t-106 289.5z" />
<glyph unicode="&#xa3;" horiz-adv-x="999" d="M20 541q1 6 9 6q18 1 145 -6q-10 10 -32 28t-37 33t-32 37t-25.5 51.5t-8.5 65.5q0 72 29 128t76.5 91t112.5 57.5t131 31.5t138 9q57 0 115 -8t120 -27.5t109.5 -49t78 -77t30.5 -106.5q0 -76 -55 -131.5t-140 -55.5q-49 0 -95 12t-54 25q-4 6 -5 15.5t-0.5 17t2 25 t1.5 26.5q4 63 -21.5 96t-76.5 33q-71 0 -89 -63q-4 -20 -5 -36.5t5 -41.5t11.5 -44t15 -43t16.5 -39t15 -32t10 -22l188 16q4 0 7 -2t3 -4l1 -2l4 -137q0 -10 -10 -10q-94 8 -211 10q-40 -63 -160 -101q209 2 610 2q4 0 6 -2t2 -4v-2v-301q0 -8 -10 -8h-881q-4 0 -7 2t-4 4 l-1 2v299q2 6 6 8v2q85 35 123 89q-43 -4 -93 -9.5t-54 -5.5t-6 2t-2 4v2z" />
<glyph unicode="&#xa7;" horiz-adv-x="1024" d="M20 475v8v13q0 157 156 243q-128 89 -139 222v20q0 75 41 139t107 104t144 62.5t156 22.5q89 0 171 -16.5t149.5 -47.5t108 -81.5t40.5 -114.5q2 -75 -49.5 -126t-142.5 -51q-48 0 -92.5 12.5t-51.5 24.5q-4 7 -4.5 18t1 31t1.5 33q0 60 -25.5 88.5t-76.5 26.5 q-42 -1 -67 -32t-25 -64q0 -32 16.5 -56t51.5 -42t69 -30t91 -28q18 -5 28 -8q226 -64 295 -182q31 -53 31 -105v-10v-10q0 -156 -156 -246q129 -86 137 -219q2 -6 2 -21q0 -75 -41.5 -138.5t-107.5 -103.5t-144.5 -62.5t-156.5 -22.5q-88 0 -170 16.5t-149 47.5 t-107.5 81.5t-40.5 114.5q-2 75 49 125.5t143 50.5q48 0 92.5 -12.5t51.5 -24.5q4 -7 4.5 -18t-1 -31t-1.5 -33q0 -60 25 -88t77 -27q42 1 67 32t25 65h-2q0 42 -35.5 73t-70 44t-118.5 37l-30 9q-228 64 -295 183q-31 53 -31 104zM362 579q-8 -23 0.5 -52t36.5 -54v2 q14 -14 35 -20l131 -45l51 -19q19 5 36 28.5t20 55.5t-23 66q-16 23 -51 34l-57 21l-54 18l-57 21l-4 2l-12 4q-15 -5 -29.5 -22t-22.5 -40z" />
<glyph unicode="&#xa8;" horiz-adv-x="903" d="M10 1307q0 73 59.5 124.5t143.5 51.5q85 0 145 -51.5t60 -124.5t-60 -125t-145 -52q-83 0 -143 52t-60 125zM487 1307q0 73 59 124.5t144 51.5t144 -51.5t59 -124.5q0 -74 -59 -125.5t-144 -51.5t-144 51.5t-59 125.5z" />
<glyph unicode="&#xa9;" horiz-adv-x="1484" d="M74 518q0 181 89 334t242.5 242.5t333.5 89.5t333.5 -89.5t243 -243t89.5 -333.5t-89.5 -333.5t-242.5 -242.5t-334 -89q-135 0 -258 52.5t-212.5 142t-142 212.5t-52.5 258zM203 518q0 -146 71.5 -269.5t195 -195t269.5 -71.5q109 0 208 42.5t171.5 114t115 171 t42.5 208.5t-43 208t-115 171t-171 115t-208 43t-208.5 -42.5t-171 -115t-114 -171.5t-42.5 -208zM367 516q0 155 107 266.5t267 118.5q82 0 154 -22t121 -69t49 -110q0 -56 -35.5 -95.5t-107.5 -43.5q-32 -3 -64 6.5t-37 18.5q-7 13 0 57q4 41 -12 74t-39 35 q-41 4 -69.5 -35t-39 -91t-10.5 -110q0 -91 37.5 -145t96.5 -65.5t130.5 6.5t141.5 65q12 8 18 2q9 -6 6 -23q-7 -26 -30 -60.5t-62 -73.5t-102 -65t-135 -26q-160 0 -272.5 112.5t-112.5 272.5z" />
<glyph unicode="&#xab;" horiz-adv-x="839" d="M21 493.5q0 17.5 28 49.5q215 215 365 336q23 19 39 9t6 -42q-50 -159 -117 -352q54 -169 119 -355q8 -27 -6 -40t-41 7q-69 58 -162 144t-143 134t-60 58q-28 34 -28 51.5zM375 493.5q0 17.5 28 49.5q215 215 365 336q23 19 39 9t6 -42q-15 -44 -42.5 -127t-49 -148 t-25.5 -77q54 -169 119 -355q8 -27 -6 -40t-41 7q-69 58 -163 145t-141.5 132.5t-60.5 58.5q-28 34 -28 51.5z" />
<glyph unicode="&#xad;" horiz-adv-x="753" d="M61 430v176q3 10 13 10h608q4 0 6 -2t2 -4v-2v-180q0 -6 -8 -6h-610q-4 0 -6.5 2t-3.5 4z" />
<glyph unicode="&#xae;" horiz-adv-x="909" d="M20 838q0 180 127.5 307t307.5 127t307 -127t127 -307t-127 -307.5t-307 -127.5t-307.5 127.5t-127.5 307.5zM104 838q0 -145 102.5 -248t248.5 -103q145 0 247.5 103t102.5 248t-102.5 247.5t-247.5 102.5q-146 0 -248.5 -102.5t-102.5 -247.5zM233 625v428l3 4 q112 18 227 18q89 0 157 -37.5t68 -105.5q0 -43 -31 -75.5t-79 -51.5q52 -93 106 -127q20 -13 2 -31q-41 -47 -104 -47q-33 0 -59 12.5t-40 29t-25 43t-14 42.5t-6.5 39.5t-3.5 24.5l-26 2v-168l-5 -7h-165q-5 3 -5 7zM408 866h38q30 0 47 15.5t17 44.5t-16 43t-41 14 q-17 0 -45 -4v-113z" />
<glyph unicode="&#xb0;" horiz-adv-x="663" d="M20 1194q0 129 91.5 220t220.5 91t220 -91t91 -220t-91 -220t-220 -91t-220.5 91t-91.5 220zM213 1194q0 -49 34.5 -83t84.5 -34t84.5 34t34.5 83q0 50 -34.5 84.5t-84.5 34.5t-84.5 -34.5t-34.5 -84.5z" />
<glyph unicode="&#xb4;" horiz-adv-x="561" d="M10 1229q-6 6 2 14q111 111 167.5 204t90.5 232q4 7 13 4q162 -40 264 -161q9 -6 4 -17q-138 -269 -440 -375q-13 -4 -17 -2q-45 36 -84 101z" />
<glyph unicode="&#xb6;" horiz-adv-x="1384" d="M20 1030q0 102 34 184t92 136t138.5 90t169 51.5t187.5 15.5q142 0 310.5 -15.5t266.5 -30.5l97 -15q8 0 8 -10v-1753q0 -4 -2 -7t-4 -4h-2h-234q-8 1 -8 9l-2 1574q0 4 -2 7t-4 4h-2h-107q-8 -1 -8 -9v-1572q0 -4 -2 -6.5t-4 -2.5h-2h-235h-2.5t-4 2.5t-2.5 6.5v821 q-59 -8 -120 -5.5t-119.5 11t-113.5 29.5t-103.5 49.5t-89 72t-69.5 96t-45 122t-16 149.5z" />
<glyph unicode="&#xb8;" horiz-adv-x="542" d="M1 -390q1 6 5 7q2 1 39 -9t84 -18t94.5 -9.5t79 20.5t29.5 69q-3 53 -78 69t-201 -15q-3 0 -5 2.5t-1 5.5q14 29 72 139t71 133l9 6h26q3 0 4.5 -1.5t1.5 -2.5v-2v-151q159 21 248 -66q67 -66 61 -155q-6 -90 -84 -140q-69 -44 -175 -37q-136 7 -233 91q-46 41 -47 64z " />
<glyph unicode="&#xbb;" horiz-adv-x="839" d="M25 139q53 151 118 355q-4 11 -50 152.5t-66 199.5q-10 32 6 42t39 -9q145 -117 364 -336q28 -32 28 -49.5t-28 -51.5q-15 -15 -60.5 -59.5t-140 -131.5t-163.5 -145q-27 -20 -41 -7t-6 40zM379 139q65 186 119 355q-67 193 -117 352q-10 32 6 42t39 -9 q150 -121 365 -336q28 -32 28 -49.5t-28 -51.5q-10 -10 -60 -58t-143 -134t-162 -144q-27 -20 -41 -7t-6 40z" />
<glyph unicode="&#xbf;" horiz-adv-x="612" d="M-133 -162q0 56 22.5 111.5t52.5 97t76.5 109t77.5 125.5q14 26 37 77t40.5 85.5t41.5 72t51.5 57t57.5 19.5q44 0 82 -50.5t56 -124.5t11 -143q-6 -57 -30.5 -112.5t-55 -99.5t-61 -85.5t-51 -84t-21.5 -80.5q-2 -37 15 -70t59 -33q31 0 48.5 23.5t21.5 48t5 61.5 q0 11 -1.5 37t-0.5 41.5t5 22.5q7 10 56 23t97 14q91 0 138.5 -48t45.5 -122q-1 -54 -32.5 -107.5t-86.5 -97t-137.5 -70.5t-177.5 -27q-104 0 -190.5 29.5t-140 78t-82.5 106t-29 116.5zM115 877q0 85 58.5 143.5t141.5 58.5t142 -58.5t59 -143.5q0 -83 -59 -142t-142 -59 t-141.5 59t-58.5 142z" />
<glyph unicode="&#xc0;" d="M10 3q-2 2 2 7q353 1102 353 1104q39 112 31 154t-27.5 69.5t-14.5 42.5q20 58 110 100t183 42q119 0 221.5 -81t159.5 -241q38 -108 131 -405.5t167 -540.5l73 -244q2 -5 0.5 -7t-3.5 -3h-3h-463q-10 0 -12 10l-52 217h-362l-45 -217q-1 -3 -3 -5t-4 -3t-4 -1.5t-3 -0.5 h-1h-428q-1 0 -2.5 0.5t-3.5 2.5zM434 1915q-5 10 4 16q103 122 264 162q9 3 13 -4q34 -139 90.5 -232t167.5 -204q9 -9 2 -15q-37 -64 -84 -100q-4 -2 -17 2q-302 106 -440 375zM561 504h240l-121 594q-21 -86 -63.5 -309t-55.5 -285z" />
<glyph unicode="&#xc1;" d="M10 3q-2 2 2 7q353 1102 353 1104q39 112 31 154t-27.5 69.5t-14.5 42.5q20 58 110 100t183 42q119 0 221.5 -81t159.5 -241q38 -108 131 -405.5t167 -540.5l73 -244q2 -5 0.5 -7t-3.5 -3h-3h-463q-10 0 -12 10l-52 217h-362l-45 -217q-1 -3 -3 -5t-4 -3t-4 -1.5t-3 -0.5 h-1h-428q-1 0 -2.5 0.5t-3.5 2.5zM436 1659q-6 6 2 14q111 111 167.5 204t90.5 232q4 8 13 5q161 -40 264 -162q9 -6 4 -17q-137 -268 -440 -374q-13 -4 -17 -2q-47 36 -84 100zM561 504h240l-121 594q-21 -86 -63.5 -309t-55.5 -285z" />
<glyph unicode="&#xc2;" d="M10 3q-2 2 2 7q353 1102 353 1104q39 112 31 154t-27.5 69.5t-14.5 42.5q20 58 110 100t183 42q119 0 221.5 -81t159.5 -241q38 -108 131 -405.5t167 -540.5l73 -244q2 -5 0.5 -7t-3.5 -3h-3h-463q-10 0 -12 10l-52 217h-362l-45 -217q-1 -3 -3 -5t-4 -3t-4 -1.5t-3 -0.5 h-1h-428q-1 0 -2.5 0.5t-3.5 2.5zM250.5 1550q-9.5 12 9.5 35q322 369 324 371q2 3 5 4.5t5 1.5h2h141q13 0 21 -8l313 -375q19 -27 6.5 -37t-41.5 0l-366 133q-264 -90 -377 -127q-33 -10 -42.5 2zM561 504h240l-121 594q-21 -86 -63.5 -309t-55.5 -285z" />
<glyph unicode="&#xc3;" d="M10 3q-2 2 2 7q353 1102 353 1104q39 112 31 154t-27.5 69.5t-14.5 42.5q20 58 110 100t183 42q119 0 221.5 -81t159.5 -241q38 -108 131 -405.5t167 -540.5l73 -244q2 -5 0.5 -7t-3.5 -3h-3h-463q-10 0 -12 10l-52 217h-362l-45 -217q-1 -3 -3 -5t-4 -3t-4 -1.5t-3 -0.5 h-1h-428q-1 0 -2.5 0.5t-3.5 2.5zM176 1597q-3 77 44 158q81 138 252 148q20 1 40 0q62 -2 126.5 -21t111 -41.5t107 -41.5t114.5 -21q45 -1 83.5 16.5t59 39.5t39 41.5t27.5 20.5q17 2 26 -44q14 -82 -25 -164q-67 -139 -251 -151q-41 -3 -86 1q-66 7 -148 40t-155 63 t-121 32q-54 2 -97 -15.5t-63.5 -40t-38 -41.5t-26.5 -20q-17 -3 -19 41zM561 504h240l-121 594q-21 -86 -63.5 -309t-55.5 -285z" />
<glyph unicode="&#xc4;" d="M10 3q-2 2 2 7q353 1102 353 1104q39 112 31 154t-27.5 69.5t-14.5 42.5q20 58 110 100t183 42q119 0 221.5 -81t159.5 -241q38 -108 131 -405.5t167 -540.5l73 -244q2 -5 0.5 -7t-3.5 -3h-3h-463q-10 0 -12 10l-52 217h-362l-45 -217q-1 -3 -3 -5t-4 -3t-4 -1.5t-3 -0.5 h-1h-428q-1 0 -2.5 0.5t-3.5 2.5zM231 1716q0 73 59.5 124.5t143.5 51.5q85 0 145 -51.5t60 -124.5t-60 -124.5t-145 -51.5q-84 0 -143.5 51.5t-59.5 124.5zM561 504h240l-121 594q-21 -86 -63.5 -309t-55.5 -285zM709 1716q0 74 58.5 125t143.5 51t144 -51.5t59 -124.5 t-59 -124.5t-144 -51.5t-143.5 51t-58.5 125z" />
<glyph unicode="&#xc5;" d="M10 3q-2 2 2 7q353 1102 353 1104q39 112 31 154t-27.5 69.5t-14.5 42.5q20 58 110 100t183 42q119 0 221.5 -81t159.5 -241q38 -108 131 -405.5t167 -540.5l73 -244q2 -5 0.5 -7t-3.5 -3h-3h-463q-10 0 -12 10l-52 217h-362l-45 -217q-1 -3 -3 -5t-4 -3t-4 -1.5t-3 -0.5 h-1h-428q-1 0 -2.5 0.5t-3.5 2.5zM399 1731q0 104 79 177.5t190 73.5q110 0 188 -73.5t78 -177.5t-78 -179t-188 -75t-189.5 75t-79.5 179zM561 504h240l-121 594q-21 -86 -63.5 -309t-55.5 -285zM567 1731q0 -50 30.5 -85.5t70.5 -35.5q41 0 69.5 35t28.5 86q0 50 -28 82 t-70 32q-43 0 -72 -32t-29 -82z" />
<glyph unicode="&#xc7;" horiz-adv-x="1314" d="M20 739q0 152 52.5 292t145 245.5t228 168.5t291.5 64q241 3 394 -102.5t153 -271.5q0 -57 -25 -109t-78.5 -88.5t-123.5 -36.5q-68 0 -114.5 21.5t-43.5 52.5q10 71 0.5 131t-48 102.5t-103.5 42.5q-66 0 -121.5 -53.5t-87 -133t-44.5 -171.5t-3 -170q16 -127 63.5 -222 t113 -146t145 -73.5t161 -12t160 45t141.5 91.5q40 34 39 -10l-6 -38q-7 -31 -25.5 -72.5t-63.5 -100.5t-105.5 -107t-160.5 -83.5t-219 -37.5q-149 -3 -282.5 60t-228 169.5t-149.5 251.5t-55 301zM530 -391q-1 7 5 8q2 1 39 -9t83.5 -18t94 -9.5t79 20.5t29.5 69 q-3 53 -77.5 69t-200.5 -15q-3 0 -5.5 2.5t-1.5 5.5q14 28 72.5 138.5t71.5 133.5l8 6h27q3 0 4.5 -1.5t1.5 -2.5v-2v-151q159 21 248 -66q67 -66 61 -155q-7 -90 -85 -140q-69 -44 -175 -37q-136 7 -232 91q-45 40 -47 63z" />
<glyph unicode="&#xc8;" horiz-adv-x="1107" d="M61 512l2 944l13 10h977q12 0 16 -10q2 -5 4 -14t6 -36t3.5 -53.5t-9 -61.5t-26 -65t-52 -59.5t-82.5 -48.5q-67 -26 -165 -27t-163 11l-65 12q0 -13 -1 -111.5t-1 -158.5h338l7 -2q4 -3 3 -8v-205q0 -4 -3 -7t-6 -4h-3h-338v-147q2 -76 44 -123t105 -61t135.5 -10 t137.5 24.5t109 48.5q30 19 42.5 4t6.5 -53q-5 -34 -26.5 -76t-64.5 -90.5t-99.5 -88t-140.5 -65.5t-179 -26q-127 0 -229 46.5t-165.5 125.5t-97 177.5t-33.5 207.5zM242 1915q-5 10 4 16q103 122 264 162q9 3 12 -4q34 -139 90.5 -232t167.5 -204q8 -9 2 -15 q-37 -64 -84 -100q-4 -2 -16 2q-302 106 -440 375z" />
<glyph unicode="&#xc9;" horiz-adv-x="1107" d="M61 512l2 944l13 10h977q12 0 16 -10q2 -5 4 -14t6 -36t3.5 -53.5t-9 -61.5t-26 -65t-52 -59.5t-82.5 -48.5q-67 -26 -165 -27t-163 11l-65 12q0 -13 -1 -111.5t-1 -158.5h338l7 -2q4 -3 3 -8v-205q0 -4 -3 -7t-6 -4h-3h-338v-147q2 -76 44 -123t105 -61t135.5 -10 t137.5 24.5t109 48.5q30 19 42.5 4t6.5 -53q-5 -34 -26.5 -76t-64.5 -90.5t-99.5 -88t-140.5 -65.5t-179 -26q-127 0 -229 46.5t-165.5 125.5t-97 177.5t-33.5 207.5zM285 1638q-7 6 2 15q111 111 167.5 204t90.5 232q3 7 12 4q161 -40 264 -162q9 -6 4 -16 q-138 -269 -440 -375q-12 -4 -16 -2q-47 36 -84 100z" />
<glyph unicode="&#xca;" horiz-adv-x="1107" d="M61 512l2 944l13 10h977q12 0 16 -10q2 -5 4 -14t6 -36t3.5 -53.5t-9 -61.5t-26 -65t-52 -59.5t-82.5 -48.5q-67 -26 -165 -27t-163 11l-65 12q0 -13 -1 -111.5t-1 -158.5h338l7 -2q4 -3 3 -8v-205q0 -4 -3 -7t-6 -4h-3h-338v-147q2 -76 44 -123t105 -61t135.5 -10 t137.5 24.5t109 48.5q30 19 42.5 4t6.5 -53q-5 -34 -26.5 -76t-64.5 -90.5t-99.5 -88t-140.5 -65.5t-179 -26q-127 0 -229 46.5t-165.5 125.5t-97 177.5t-33.5 207.5zM135.5 1550q-9.5 12 9.5 35q322 369 324 371q2 3 5 4.5t5 1.5h2h142q12 0 20 -8l313 -375q20 -27 7 -37 t-41 0l-367 133q-264 -90 -377 -127q-33 -10 -42.5 2z" />
<glyph unicode="&#xcb;" horiz-adv-x="1107" d="M61 512l2 944l13 10h977q12 0 16 -10q2 -5 4 -14t6 -36t3.5 -53.5t-9 -61.5t-26 -65t-52 -59.5t-82.5 -48.5q-67 -26 -165 -27t-163 11l-65 12q0 -13 -1 -111.5t-1 -158.5h338l7 -2q4 -3 3 -8v-205q0 -4 -3 -7t-6 -4h-3h-338v-147q2 -76 44 -123t105 -61t135.5 -10 t137.5 24.5t109 48.5q30 19 42.5 4t6.5 -53q-5 -34 -26.5 -76t-64.5 -90.5t-99.5 -88t-140.5 -65.5t-179 -26q-127 0 -229 46.5t-165.5 125.5t-97 177.5t-33.5 207.5zM113 1716q0 73 59 124.5t143 51.5q85 0 145 -51.5t60 -124.5t-60 -124.5t-145 -51.5q-84 0 -143 51.5 t-59 124.5zM590 1716q0 73 59 124.5t144 51.5t143.5 -51t58.5 -125t-58.5 -125t-143.5 -51t-144 51.5t-59 124.5z" />
<glyph unicode="&#xcc;" horiz-adv-x="636" d="M-8 1364q20 53 106 101t174 48q62 0 115 -19t96 -57t67.5 -102.5t24.5 -148.5v-1176l-10 -10h-436l-8 10q-2 940 0 1111v1q-6 68 -23.5 113t-37 63t-37.5 27.5t-27 17t-4 21.5zM47 1915q-5 10 4 16q103 122 264 162q9 3 13 -4q34 -139 90.5 -232t167.5 -204q8 -9 2 -15 q-37 -64 -84 -100q-4 -2 -17 2q-302 106 -440 375z" />
<glyph unicode="&#xcd;" horiz-adv-x="636" d="M-8 1364q20 53 106 101t174 48q62 0 115 -19t96 -57t67.5 -102.5t24.5 -148.5v-1176l-10 -10h-436l-8 10q-2 940 0 1111v1q-6 68 -23.5 113t-37 63t-37.5 27.5t-27 17t-4 21.5zM49 1659q-6 6 2 14q111 111 167.5 204t90.5 232q4 8 13 5q161 -40 264 -162q9 -6 4 -17 q-137 -268 -440 -374q-13 -4 -17 -2q-47 36 -84 100z" />
<glyph unicode="&#xce;" horiz-adv-x="636" d="M-97.5 1550q-9.5 12 9.5 35q322 369 324 371q2 3 5 4.5t5 1.5h2h141q13 0 21 -8l313 -375q19 -27 6.5 -37t-41.5 0l-366 133q-264 -90 -377 -127q-33 -10 -42.5 2zM-8 1364q20 53 106 101t174 48q62 0 115 -19t96 -57t67.5 -102.5t24.5 -148.5v-1176l-10 -10h-436l-8 10 q-2 940 0 1111v1q-6 68 -23.5 113t-37 63t-37.5 27.5t-27 17t-4 21.5z" />
<glyph unicode="&#xcf;" horiz-adv-x="636" d="M-123 1716q0 73 59.5 124.5t143.5 51.5q85 0 145 -51.5t60 -124.5t-60 -124.5t-145 -51.5q-84 0 -143.5 51.5t-59.5 124.5zM-8 1364q20 53 106 101t174 48q62 0 115 -19t96 -57t67.5 -102.5t24.5 -148.5v-1176l-10 -10h-436l-8 10q-2 940 0 1111v1q-6 68 -23.5 113 t-37 63t-37.5 27.5t-27 17t-4 21.5zM354 1716q0 73 59 124.5t144 51.5t144 -51.5t59 -124.5t-59 -124.5t-144 -51.5t-144 51.5t-59 124.5z" />
<glyph unicode="&#xd1;" horiz-adv-x="1425" d="M-6 1370q20 54 111 103t188 49q48 0 90.5 -14.5t73.5 -34.5t66 -58t57.5 -69t58.5 -84q216 -372 315 -586l-20 196l-10 582q-3 9 8 10h426q10 0 10 -10l-6 -1444q2 -9 -10 -10h-377q-8 -2 -14 10l-435 854l19 -170l18 -684l-10 -10h-438l-9 3q-3 2 -2 7q13 1118 13 1120 q-3 65 -18.5 109.5t-35 62.5t-38 28.5t-27.5 18.5t-4 21zM182 1597q-3 77 44 158q81 138 252 148q20 1 40 0q62 -2 126.5 -21t111 -41.5t107 -41.5t114.5 -21q45 -1 83.5 16.5t59 39.5t39 41.5t27.5 20.5q17 2 26 -44q14 -82 -25 -164q-67 -139 -251 -151q-41 -3 -86 1 q-66 7 -148 40t-155 63t-121 32q-54 2 -97 -15.5t-63.5 -40t-38 -41.5t-26.5 -20q-17 -3 -19 41z" />
<glyph unicode="&#xd2;" horiz-adv-x="1454" d="M20 731q0 156 51 297.5t141.5 248t225 169.5t291.5 63q158 0 292.5 -63t225.5 -169.5t142 -248t51 -297.5q0 -157 -50 -298t-140 -246.5t-225 -167.5t-296 -62q-157 0 -291.5 62t-225 167.5t-141.5 246.5t-51 298zM455 1915q-5 10 4 16q103 122 264 162q9 3 12 -4 q34 -139 90.5 -232t167.5 -204q9 -9 2 -15q-37 -64 -84 -100q-4 -2 -16 2q-302 106 -440 375zM483 731q0 -121 28.5 -244t86.5 -212t131 -89q76 0 134.5 87t86 209t27.5 249q0 126 -28.5 249.5t-87 211.5t-132.5 88t-132 -88t-86 -211.5t-28 -249.5z" />
<glyph unicode="&#xd3;" horiz-adv-x="1454" d="M20 731q0 156 51 297.5t141.5 248t225 169.5t291.5 63q158 0 292.5 -63t225.5 -169.5t142 -248t51 -297.5q0 -157 -50 -298t-140 -246.5t-225 -167.5t-296 -62q-157 0 -291.5 62t-225 167.5t-141.5 246.5t-51 298zM483 731q0 -121 28.5 -244t86.5 -212t131 -89 q76 0 134.5 87t86 209t27.5 249q0 126 -28.5 249.5t-87 211.5t-132.5 88t-132 -88t-86 -211.5t-28 -249.5zM510 1659q-6 6 2 14q111 111 167.5 204t90.5 232q4 8 12 5q162 -40 265 -162q9 -6 4 -17q-137 -267 -441 -374q-12 -4 -16 -2q-47 36 -84 100z" />
<glyph unicode="&#xd4;" horiz-adv-x="1454" d="M20 731q0 156 51 297.5t141.5 248t225 169.5t291.5 63q158 0 292.5 -63t225.5 -169.5t142 -248t51 -297.5q0 -157 -50 -298t-140 -246.5t-225 -167.5t-296 -62q-157 0 -291.5 62t-225 167.5t-141.5 246.5t-51 298zM316 1530q-9 12 10 35q321 368 323 370q2 3 5 4.5t6 2.5 h2h141q11 0 20 -9l314 -374q19 -27 6.5 -37t-41.5 0l-367 133q-264 -90 -377 -127q-33 -10 -42 2zM483 731q0 -121 28.5 -244t86.5 -212t131 -89q76 0 134.5 87t86 209t27.5 249q0 126 -28.5 249.5t-87 211.5t-132.5 88t-132 -88t-86 -211.5t-28 -249.5z" />
<glyph unicode="&#xd5;" horiz-adv-x="1454" d="M20 731q0 156 51 297.5t141.5 248t225 169.5t291.5 63q158 0 292.5 -63t225.5 -169.5t142 -248t51 -297.5q0 -157 -50 -298t-140 -246.5t-225 -167.5t-296 -62q-157 0 -291.5 62t-225 167.5t-141.5 246.5t-51 298zM214 1618q-2 77 45 158q82 138 254 147q18 1 38 0 q62 -2 126.5 -21t111 -41.5t107 -41.5t114.5 -21q45 -1 83.5 16.5t59 40t39 42t27.5 20.5q17 2 26 -44q14 -82 -25 -164q-67 -139 -251 -151q-41 -3 -86 1q-66 7 -148 40t-155 63t-121 32q-54 2 -97 -15.5t-64 -40t-38.5 -41.5t-26.5 -20q-17 -3 -19 41zM483 731 q0 -121 28.5 -244t86.5 -212t131 -89q76 0 134.5 87t86 209t27.5 249q0 126 -28.5 249.5t-87 211.5t-132.5 88t-132 -88t-86 -211.5t-28 -249.5z" />
<glyph unicode="&#xd6;" horiz-adv-x="1454" d="M20 731q0 156 51 297.5t141.5 248t225 169.5t291.5 63q158 0 292.5 -63t225.5 -169.5t142 -248t51 -297.5q0 -157 -50 -298t-140 -246.5t-225 -167.5t-296 -62q-157 0 -291.5 62t-225 167.5t-141.5 246.5t-51 298zM285 1716q0 73 59 124.5t143 51.5q85 0 145 -51.5 t60 -124.5t-60 -124.5t-145 -51.5q-84 0 -143 51.5t-59 124.5zM483 731q0 -121 28.5 -244t86.5 -212t131 -89q76 0 134.5 87t86 209t27.5 249q0 126 -28.5 249.5t-87 211.5t-132.5 88t-132 -88t-86 -211.5t-28 -249.5zM762 1716q0 73 59 124.5t144 51.5t143.5 -51t58.5 -125 t-58.5 -125t-143.5 -51t-144 51.5t-59 124.5z" />
<glyph unicode="&#xd8;" horiz-adv-x="1454" d="M20 731q0 156 51 297.5t141.5 248t225 169.5t291.5 63q152 0 281 -57l80 168q2 3 4 5t4 3t4 1.5t3 0.5h1h172q8 0 0 -10q-59 -101 -137 -246q141 -106 220 -276t79 -367q0 -157 -50 -298t-140 -246.5t-225 -167.5t-296 -62q-154 0 -283 57l-100 -217q-4 -4 -8 -6t-6 -2 h-2h-174l-4 1q-1 2 2 7q4 8 23 43t62 111.5t78 138.5q-141 104 -219 273t-78 368zM483 731q0 -139 33 -260l361 696q-65 113 -148 113q-74 0 -132 -88t-86 -211.5t-28 -249.5zM584 297q64 -111 145 -111q76 0 134.5 87t86 209t27.5 249q0 135 -35 266z" />
<glyph unicode="&#xd9;" horiz-adv-x="1429" d="M-8 1354q20 56 97.5 104.5t164.5 48.5q138 0 236 -90t98 -237v-785v-4q0 -47 17.5 -84t45 -56.5t60.5 -28.5t66.5 -0.5t61 28t45 57t17.5 86.5v1059q0 4 2 7t4 4l2 1h451q8 -2 8 -10q-6 -688 -4 -948q1 -118 -40.5 -216.5t-112 -162.5t-162.5 -109t-194 -55t-204 -0.5 t-194.5 53.5t-164 107.5t-113.5 161.5t-42 215v2v524q0 81 -12 139.5t-29.5 86t-37.5 45.5t-36.5 23.5t-25 13t-4.5 20.5zM442 1915q-5 10 4 16q103 122 265 162q9 3 12 -4q34 -139 90.5 -232t167.5 -204q9 -9 2 -15q-37 -64 -84 -100q-4 -2 -16 2q-304 107 -441 375z" />
<glyph unicode="&#xda;" horiz-adv-x="1429" d="M-8 1354q20 56 97.5 104.5t164.5 48.5q138 0 236 -90t98 -237v-785v-4q0 -47 17.5 -84t45 -56.5t60.5 -28.5t66.5 -0.5t61 28t45 57t17.5 86.5v1059q0 4 2 7t4 4l2 1h451q8 -2 8 -10q-6 -688 -4 -948q1 -118 -40.5 -216.5t-112 -162.5t-162.5 -109t-194 -55t-204 -0.5 t-194.5 53.5t-164 107.5t-113.5 161.5t-42 215v2v524q0 81 -12 139.5t-29.5 86t-37.5 45.5t-36.5 23.5t-25 13t-4.5 20.5zM444 1638q-6 6 2 15q111 111 168 204.5t91 231.5q3 7 12 4q161 -40 264 -162q9 -6 4 -16q-138 -269 -440 -375q-13 -4 -17 -2q-47 36 -84 100z" />
<glyph unicode="&#xdb;" horiz-adv-x="1429" d="M-8 1354q20 56 97.5 104.5t164.5 48.5q138 0 236 -90t98 -237v-785v-4q0 -47 17.5 -84t45 -56.5t60.5 -28.5t66.5 -0.5t61 28t45 57t17.5 86.5v1059q0 4 2 7t4 4l2 1h451q8 -2 8 -10q-6 -688 -4 -948q1 -118 -40.5 -216.5t-112 -162.5t-162.5 -109t-194 -55t-204 -0.5 t-194.5 53.5t-164 107.5t-113.5 161.5t-42 215v2v524q0 81 -12 139.5t-29.5 86t-37.5 45.5t-36.5 23.5t-25 13t-4.5 20.5zM297.5 1550q-9.5 12 9.5 35q322 369 324 371q2 3 5 4.5t5 1.5h2h141q13 0 21 -8l313 -375q19 -27 6.5 -37t-41.5 0l-366 133q-264 -90 -377 -127 q-33 -10 -42.5 2z" />
<glyph unicode="&#xdc;" horiz-adv-x="1429" d="M-8 1354q20 56 97.5 104.5t164.5 48.5q138 0 236 -90t98 -237v-785v-4q0 -47 17.5 -84t45 -56.5t60.5 -28.5t66.5 -0.5t61 28t45 57t17.5 86.5v1059q0 4 2 7t4 4l2 1h451q8 -2 8 -10q-6 -688 -4 -948q1 -118 -40.5 -216.5t-112 -162.5t-162.5 -109t-194 -55t-204 -0.5 t-194.5 53.5t-164 107.5t-113.5 161.5t-42 215v2v524q0 81 -12 139.5t-29.5 86t-37.5 45.5t-36.5 23.5t-25 13t-4.5 20.5zM272 1716q0 73 59.5 124.5t143.5 51.5q85 0 145 -51.5t60 -124.5t-60 -124.5t-145 -51.5q-84 0 -143.5 51.5t-59.5 124.5zM750 1716q0 74 58.5 125 t143.5 51t144 -51.5t59 -124.5t-59 -124.5t-144 -51.5t-143.5 51t-58.5 125z" />
<glyph unicode="&#xdd;" horiz-adv-x="1368" d="M1.5 1459.5q1.5 3.5 4.5 4.5l4 2h492q10 0 14 -12l252 -625q41 62 67 135t36 135t12.5 125t-1.5 104.5t-8 75t-4 34.5q-1 30 61 57q91 40 198 26q151 -18 205 -139q24 -52 26 -122q0 -70 -17 -137t-41 -119t-65.5 -106.5t-76 -90.5t-88.5 -80.5t-85.5 -67.5t-83.5 -59 v-174q3 -90 20 -150.5t38 -83.5t41 -35t30.5 -19.5t5.5 -22.5q-20 -58 -102.5 -110t-171.5 -52q-136 0 -223.5 87.5t-87.5 266.5q0 211 -2 307l-449 836q-2 6 -0.5 9.5zM438 1638q-6 6 2 15q111 111 167.5 204t90.5 232q4 7 13 4q161 -40 264 -162q9 -6 4 -16 q-138 -269 -440 -375q-13 -4 -17 -2q-47 36 -84 100z" />
<glyph unicode="&#xdf;" horiz-adv-x="1431" d="M47 10v1020q-29 215 126.5 355.5t428.5 140.5q100 1 196.5 -16.5t190 -63.5t146.5 -115q42 -56 47 -106.5t-17.5 -89t-55.5 -75.5t-61 -73t-39 -75t15 -89.5t96 -107.5q139 -112 178 -151q112 -109 129 -225q2 -14 3 -28q5 -68 -25 -131t-89.5 -114t-155.5 -81.5 t-214 -31.5q-117 -1 -214 26.5t-160.5 90t-63.5 149.5q0 79 54 137t140 58q48 0 100 -15t58 -28q5 -14 3.5 -26t-5.5 -37t-4 -40q0 -81 57 -102q45 -18 86 13q47 34 31 95q-13 45 -65 93q-40 37 -110 91t-119.5 95t-99.5 91.5t-74.5 106t-20.5 113.5q3 46 24.5 87t50 71.5 t56.5 60t47 64.5t18 72q-1 53 -23.5 90.5t-56 54t-72.5 16t-73.5 -17.5t-59 -52.5t-28.5 -82.5q-4 -26 0 -61t9 -55.5t13.5 -89t14.5 -161.5v-848q0 -4 -2 -7t-4 -4l-2 -1h-396q-8 2 -8 10z" />
<glyph unicode="&#xe0;" horiz-adv-x="1263" d="M20 516q0 144 46 268.5t142 205.5t224 81q199 0 305 -194v141q0 4 2.5 7t5.5 4l3 1h409q8 -2 8 -10q-14 -467 -14 -608q0 -77 10 -132.5t25 -81.5t32 -43t30.5 -22t19.5 -13t2 -20q-16 -52 -89.5 -98.5t-156.5 -46.5q-107 0 -183 62.5t-96 170.5q-56 -106 -138 -168.5 t-185 -62.5q-93 0 -171 48.5t-127.5 128.5t-76.5 179t-27 203zM358 1505q-5 11 4 17q102 121 265 161q9 3 12 -4q34 -139 90.5 -232t167.5 -204q8 -8 2 -14q-39 -65 -84 -101q-4 -2 -16 2q-304 107 -441 375zM442 516q0 -120 40.5 -198t113.5 -78t113.5 78t40.5 198 q0 121 -41 200t-113 79t-113 -79t-41 -200z" />
<glyph unicode="&#xe1;" horiz-adv-x="1263" d="M20 516q0 144 46 268.5t142 205.5t224 81q199 0 305 -194v141q0 4 2.5 7t5.5 4l3 1h409q8 -2 8 -10q-14 -467 -14 -608q0 -77 10 -132.5t25 -81.5t32 -43t30.5 -22t19.5 -13t2 -20q-16 -52 -89.5 -98.5t-156.5 -46.5q-107 0 -183 62.5t-96 170.5q-56 -106 -138 -168.5 t-185 -62.5q-93 0 -171 48.5t-127.5 128.5t-76.5 179t-27 203zM389 1229q-6 6 2 14q111 111 167.5 204t90.5 232q4 7 13 4q162 -40 264 -161q9 -6 4 -17q-137 -268 -441 -375q-12 -4 -16 -2q-45 36 -84 101zM442 516q0 -120 40.5 -198t113.5 -78t113.5 78t40.5 198 q0 121 -41 200t-113 79t-113 -79t-41 -200z" />
<glyph unicode="&#xe2;" horiz-adv-x="1263" d="M20 516q0 144 46 268.5t142 205.5t224 81q199 0 305 -194v141q0 4 2.5 7t5.5 4l3 1h409q8 -2 8 -10q-14 -467 -14 -608q0 -77 10 -132.5t25 -81.5t32 -43t30.5 -22t19.5 -13t2 -20q-16 -52 -89.5 -98.5t-156.5 -46.5q-107 0 -183 62.5t-96 170.5q-56 -106 -138 -168.5 t-185 -62.5q-93 0 -171 48.5t-127.5 128.5t-76.5 179t-27 203zM213.5 1141q-9.5 12 9.5 35q322 368 324 370q2 3 5 4.5t5 1.5h2h141q13 0 21 -8l313 -375q20 -26 6.5 -36.5t-41.5 0.5l-366 133q-264 -90 -377 -127q-33 -10 -42.5 2zM442 516q0 -120 40.5 -198t113.5 -78 t113.5 78t40.5 198q0 121 -41 200t-113 79t-113 -79t-41 -200z" />
<glyph unicode="&#xe3;" horiz-adv-x="1263" d="M20 516q0 144 46 268.5t142 205.5t224 81q199 0 305 -194v141q0 4 2.5 7t5.5 4l3 1h409q8 -2 8 -10q-14 -467 -14 -608q0 -77 10 -132.5t25 -81.5t32 -43t30.5 -22t19.5 -13t2 -20q-16 -52 -89.5 -98.5t-156.5 -46.5q-107 0 -183 62.5t-96 170.5q-56 -106 -138 -168.5 t-185 -62.5q-93 0 -171 48.5t-127.5 128.5t-76.5 179t-27 203zM128 1188q-2 77 45 158q82 138 254 147h38q62 -2 126.5 -21t111 -41.5t107 -41.5t114.5 -21q45 -1 83.5 16.5t59 40t39 42t27.5 20.5q17 2 25 -44q15 -81 -23 -163q-66 -139 -247 -153q-43 -3 -91 1 q-66 7 -148 40t-155 63.5t-121 32.5q-54 2 -97 -15.5t-64 -40t-38.5 -41.5t-26.5 -20q-17 -3 -19 41zM442 516q0 -120 40.5 -198t113.5 -78t113.5 78t40.5 198q0 121 -41 200t-113 79t-113 -79t-41 -200z" />
<glyph unicode="&#xe4;" horiz-adv-x="1263" d="M20 516q0 144 46 268.5t142 205.5t224 81q199 0 305 -194v141q0 4 2.5 7t5.5 4l3 1h409q8 -2 8 -10q-14 -467 -14 -608q0 -77 10 -132.5t25 -81.5t32 -43t30.5 -22t19.5 -13t2 -20q-16 -52 -89.5 -98.5t-156.5 -46.5q-107 0 -183 62.5t-96 170.5q-56 -106 -138 -168.5 t-185 -62.5q-93 0 -171 48.5t-127.5 128.5t-76.5 179t-27 203zM203 1307q0 73 59.5 124.5t143.5 51.5q85 0 144.5 -51.5t59.5 -124.5q0 -74 -59.5 -125.5t-144.5 -51.5q-83 0 -143 52t-60 125zM442 516q0 -120 40.5 -198t113.5 -78t113.5 78t40.5 198q0 121 -41 200t-113 79 t-113 -79t-41 -200zM680 1307q0 73 59 124.5t144 51.5t143.5 -51t58.5 -125t-58.5 -125.5t-143.5 -51.5t-144 51.5t-59 125.5z" />
<glyph unicode="&#xe5;" horiz-adv-x="1263" d="M20 516q0 144 46 268.5t142 205.5t224 81q199 0 305 -194v141q0 4 2.5 7t5.5 4l3 1h409q8 -2 8 -10q-14 -467 -14 -608q0 -77 10 -132.5t25 -81.5t32 -43t30.5 -22t19.5 -13t2 -20q-16 -52 -89.5 -98.5t-156.5 -46.5q-107 0 -183 62.5t-96 170.5q-56 -106 -138 -168.5 t-185 -62.5q-93 0 -171 48.5t-127.5 128.5t-76.5 179t-27 203zM365 1382q0 104 79 178t189 74t188 -74t78 -178t-78 -179t-188 -75t-189 75t-79 179zM442 516q0 -120 40.5 -198t113.5 -78t113.5 78t40.5 198q0 121 -41 200t-113 79t-113 -79t-41 -200zM532 1382 q0 -50 30.5 -85t70.5 -35q41 0 69.5 34.5t28.5 85.5q0 50 -28 82.5t-70 32.5q-43 0 -72 -32.5t-29 -82.5z" />
<glyph unicode="&#xe6;" horiz-adv-x="2322" d="M20 516q0 144 46 268.5t142 205.5t224 81q199 0 305 -194v141q0 4 2.5 7t5.5 4l3 1h407q8 -2 8 -10q-4 -460 -8 -610q0 -60 12.5 -98t33.5 -49.5t45 -6t50 26.5q-49 114 -49 233q0 112 42.5 213.5t117 177.5t185 121t239.5 45q81 0 152 -16t122.5 -44t92 -63.5t65 -76 t37 -80t12.5 -76.5q0 -93 -41.5 -160.5t-107.5 -103.5t-152.5 -52.5t-171.5 -15t-170 15.5q35 -100 129 -144t217 -27.5t248 85.5q15 11 27 2q13 -10 6 -32q-8 -28 -31 -67t-66.5 -85.5t-98 -85t-133 -64.5t-163.5 -26q-234 0 -399 168q-71 -84 -155 -126.5t-212 -43.5 q-110 -1 -192.5 70t-100.5 163q-56 -106 -138 -168.5t-185 -62.5q-93 0 -171 48.5t-127.5 128.5t-76.5 179t-27 203zM442 516q0 -120 40.5 -198t113.5 -78t113.5 78t40.5 198q0 121 -41 200t-113 79t-113 -79t-41 -200zM1653 582q133 -12 202.5 31.5t69.5 129.5q0 42 -31 72 t-77 27q0 -2 -2 -2h-7q-24 -3 -49 -19q-91 -55 -106 -239z" />
<glyph unicode="&#xe7;" horiz-adv-x="1067" d="M20 516q0 148 70 273t194.5 201t278.5 83q88 0 168.5 -18t146.5 -52t105 -90.5t39 -126.5q2 -78 -55 -141t-144 -63q-47 0 -91.5 12t-51.5 22q-4 8 -4.5 19t1 31t1.5 34q0 63 -27.5 102.5t-70.5 39.5q-53 0 -90.5 -50.5t-52 -124t-7.5 -151.5q9 -105 54 -173t108 -93 t139.5 -23.5t150 25.5t138.5 63q16 12 29 2q11 -11 6 -32q-9 -29 -30 -67t-62.5 -85t-93 -85.5t-128 -64.5t-161.5 -26q-153 0 -282 75t-203.5 203.5t-74.5 280.5zM355 -390q1 6 5 7q2 1 39 -9t84 -18t94.5 -9.5t79 20.5t29.5 69q-3 53 -77.5 69t-200.5 -15q-3 0 -5.5 2.5 t-1.5 5.5q14 28 72.5 138.5t71.5 133.5l8 6h27q3 0 4.5 -1.5t1.5 -2.5v-2v-151q159 21 248 -66q67 -66 61 -155q-7 -90 -85 -140q-69 -44 -175 -37q-136 7 -233 91q-46 41 -47 64z" />
<glyph unicode="&#xe8;" horiz-adv-x="1105" d="M20 516q0 112 42.5 213.5t117 177.5t185 121t239.5 45q81 0 152 -16t122.5 -44t92 -63.5t65 -76t37 -80t12.5 -76.5q0 -93 -41.5 -160.5t-107.5 -103.5t-152.5 -52.5t-171.5 -15t-170 15.5q35 -100 129 -144t217 -27.5t248 85.5q15 11 27 2q13 -10 6 -32q-8 -28 -31 -67 t-66.5 -85.5t-98 -85t-132.5 -64.5t-163 -26q-152 0 -280.5 75t-203 203.5t-74.5 280.5zM262 1505q-5 11 4 17q102 121 264 161q9 3 13 -4q34 -139 90.5 -232t167.5 -204q8 -8 2 -14q-39 -65 -84 -101q-4 -2 -17 2q-302 106 -440 375zM426 582q133 -12 202.5 31.5 t69.5 129.5q0 42 -31 72t-77 27q0 -2 -2 -2h-6q-25 -4 -50 -19q-91 -55 -106 -239z" />
<glyph unicode="&#xe9;" horiz-adv-x="1105" d="M20 516q0 112 42.5 213.5t117 177.5t185 121t239.5 45q81 0 152 -16t122.5 -44t92 -63.5t65 -76t37 -80t12.5 -76.5q0 -93 -41.5 -160.5t-107.5 -103.5t-152.5 -52.5t-171.5 -15t-170 15.5q35 -100 129 -144t217 -27.5t248 85.5q15 11 27 2q13 -10 6 -32q-8 -28 -31 -67 t-66.5 -85.5t-98 -85t-132.5 -64.5t-163 -26q-152 0 -280.5 75t-203 203.5t-74.5 280.5zM305 1229q-6 6 2 14q111 111 167.5 204t90.5 232q4 7 13 4q162 -40 264 -161q9 -6 4 -17q-138 -269 -440 -375q-13 -4 -17 -2q-45 36 -84 101zM426 582q133 -12 202.5 31.5t69.5 129.5 q0 42 -31 72t-77 27q0 -2 -2 -2h-6q-25 -4 -50 -19q-91 -55 -106 -239z" />
<glyph unicode="&#xea;" horiz-adv-x="1105" d="M20 516q0 112 42.5 213.5t117 177.5t185 121t239.5 45q81 0 152 -16t122.5 -44t92 -63.5t65 -76t37 -80t12.5 -76.5q0 -93 -41.5 -160.5t-107.5 -103.5t-152.5 -52.5t-171.5 -15t-170 15.5q35 -100 129 -144t217 -27.5t248 85.5q15 11 27 2q13 -10 6 -32q-8 -28 -31 -67 t-66.5 -85.5t-98 -85t-132.5 -64.5t-163 -26q-152 0 -280.5 75t-203 203.5t-74.5 280.5zM162.5 1141q-9.5 12 9.5 35q322 368 324 370q2 3 5 4.5t5 1.5h2h141q13 0 21 -8l313 -375q20 -26 6.5 -36.5t-41.5 0.5l-366 133q-264 -90 -377 -127q-33 -10 -42.5 2zM426 582 q133 -12 202.5 31.5t69.5 129.5q0 42 -31 72t-77 27q0 -2 -2 -2h-6q-25 -4 -50 -19q-91 -55 -106 -239z" />
<glyph unicode="&#xeb;" horiz-adv-x="1105" d="M20 516q0 112 42.5 213.5t117 177.5t185 121t239.5 45q81 0 152 -16t122.5 -44t92 -63.5t65 -76t37 -80t12.5 -76.5q0 -93 -41.5 -160.5t-107.5 -103.5t-152.5 -52.5t-171.5 -15t-170 15.5q35 -100 129 -144t217 -27.5t248 85.5q15 11 27 2q13 -10 6 -32q-8 -28 -31 -67 t-66.5 -85.5t-98 -85t-132.5 -64.5t-163 -26q-152 0 -280.5 75t-203 203.5t-74.5 280.5zM117 1307q0 74 58.5 125t143.5 51t144 -51.5t59 -124.5q0 -74 -59 -125.5t-144 -51.5t-143.5 51.5t-58.5 125.5zM426 582q133 -12 202.5 31.5t69.5 129.5q0 42 -31 72t-77 27 q0 -2 -2 -2h-6q-25 -4 -50 -19q-91 -55 -106 -239zM594 1307q0 73 59 124.5t144 51.5t143.5 -51t58.5 -125t-58.5 -125.5t-143.5 -51.5t-144 51.5t-59 125.5z" />
<glyph unicode="&#xec;" horiz-adv-x="585" d="M-8 930q18 53 92 99t156 46q126 0 205 -84t79 -227v-752q0 -4 -2 -7t-4 -4l-2 -1h-410q-10 2 -10 10q17 467 17 608q0 91 -14.5 151.5t-33.5 84t-38 35.5t-29.5 19.5t-5.5 21.5zM20 1505q-5 10 5 17q102 121 264 161q9 3 12 -4q34 -139 90.5 -232t167.5 -204q8 -8 2 -14 q-39 -65 -84 -101q-4 -2 -16 2q-304 107 -441 375z" />
<glyph unicode="&#xed;" horiz-adv-x="585" d="M-8 930q18 53 92 99t156 46q126 0 205 -84t79 -227v-752q0 -4 -2 -7t-4 -4l-2 -1h-410q-10 2 -10 10q17 467 17 608q0 91 -14.5 151.5t-33.5 84t-38 35.5t-29.5 19.5t-5.5 21.5zM23 1229q-6 6 2 14q111 111 167.5 204t90.5 232q3 7 12 4q162 -40 264 -161q9 -6 4 -17 q-138 -269 -440 -375q-13 -4 -17 -2q-44 34 -83 101z" />
<glyph unicode="&#xee;" horiz-adv-x="585" d="M-124.5 1141q-9.5 12 9.5 35q322 368 324 370q2 3 5 4.5t5 1.5h2h141q13 0 21 -8l313 -375q20 -26 7 -36.5t-41 0.5l-367 133q-264 -90 -377 -127q-33 -10 -42.5 2zM-8 930q18 53 92 99t156 46q126 0 205 -84t79 -227v-752q0 -4 -2 -7t-4 -4l-2 -1h-410q-10 2 -10 10 q17 467 17 608q0 91 -14.5 151.5t-33.5 84t-38 35.5t-29.5 19.5t-5.5 21.5z" />
<glyph unicode="&#xef;" horiz-adv-x="585" d="M-147 1307q0 73 59 124.5t143 51.5q85 0 145 -51.5t60 -124.5t-60 -125t-145 -52q-83 0 -142.5 52t-59.5 125zM-8 930q18 53 92 99t156 46q126 0 205 -84t79 -227v-752q0 -4 -2 -7t-4 -4l-2 -1h-410q-10 2 -10 10q17 467 17 608q0 91 -14.5 151.5t-33.5 84t-38 35.5 t-29.5 19.5t-5.5 21.5zM330 1307q0 74 58.5 125t143.5 51t144 -51.5t59 -124.5q0 -74 -59 -125.5t-144 -51.5t-143.5 51.5t-58.5 125.5z" />
<glyph unicode="&#xf1;" horiz-adv-x="1273" d="M-8 930q16 52 89.5 98.5t156.5 46.5q108 0 184 -64t96 -175q43 83 105.5 139t122 78t118.5 22q119 0 201 -94t82 -244q0 -35 -1 -134t-1 -185q0 -91 16 -151.5t38 -84.5t43.5 -36t33 -19.5t6.5 -22.5q-19 -51 -92.5 -97t-155.5 -46q-127 0 -214 85t-87 226v398 q0 95 -52 116q-43 17 -90 -30q-65 -66 -67 -191v-4v-549q0 -4 -2.5 -7t-5.5 -4l-2 -1h-410q-8 2 -8 10q17 467 17 608q0 91 -14.5 151.5t-34 84t-38.5 35.5t-29 19.5t-5 21.5zM106 1188q-3 78 45 158q82 139 254 147h37q62 -2 126.5 -21t111 -41.5t107 -41.5t114.5 -21 q45 -1 83.5 16.5t59 40t39 42t27.5 20.5q17 2 25 -44q15 -81 -23 -163q-66 -139 -247 -153q-43 -3 -91 1q-66 7 -148 40t-155 63.5t-121 32.5q-54 2 -97 -15.5t-63.5 -40t-38 -41.5t-26.5 -20q-17 -3 -19 41z" />
<glyph unicode="&#xf2;" horiz-adv-x="1187" d="M20 510q0 152 74 279.5t206 202.5t294 75q121 0 228 -44t182.5 -119t119 -177.5t43.5 -216.5q0 -115 -42.5 -217.5t-117.5 -177t-182.5 -118.5t-230.5 -44q-162 0 -294 74.5t-206 202t-74 280.5zM322 1505q-5 11 4 17q102 121 264 161q9 3 12 -4q34 -139 90.5 -232 t167.5 -204q8 -8 2 -14q-39 -65 -84 -101q-4 -2 -16 2q-302 106 -440 375zM424 510q0 -140 43 -233t127 -93q87 0 128.5 90t41.5 236q0 92 -17 163.5t-56.5 117t-96.5 45.5q-58 0 -97.5 -46t-56 -117t-16.5 -163z" />
<glyph unicode="&#xf3;" horiz-adv-x="1187" d="M20 510q0 152 74 279.5t206 202.5t294 75q121 0 228 -44t182.5 -119t119 -177.5t43.5 -216.5q0 -115 -42.5 -217.5t-117.5 -177t-182.5 -118.5t-230.5 -44q-162 0 -294 74.5t-206 202t-74 280.5zM324 1229q-6 6 2 14q111 111 167.5 204t90.5 232q3 7 12 4 q162 -40 264 -161q9 -6 4 -17q-138 -269 -440 -375q-12 -4 -16 -2q-45 36 -84 101zM424 510q0 -140 43 -233t127 -93q87 0 128.5 90t41.5 236q0 92 -17 163.5t-56.5 117t-96.5 45.5q-58 0 -97.5 -46t-56 -117t-16.5 -163z" />
<glyph unicode="&#xf4;" horiz-adv-x="1187" d="M20 510q0 152 74 279.5t206 202.5t294 75q121 0 228 -44t182.5 -119t119 -177.5t43.5 -216.5q0 -115 -42.5 -217.5t-117.5 -177t-182.5 -118.5t-230.5 -44q-162 0 -294 74.5t-206 202t-74 280.5zM176.5 1141q-9.5 12 9.5 35q322 368 324 370q2 3 5 4.5t5 1.5h2h142 q12 0 20 -8l313 -375q20 -26 7 -36.5t-41 0.5l-367 133q-264 -90 -377 -127q-33 -10 -42.5 2zM424 510q0 -140 43 -233t127 -93q87 0 128.5 90t41.5 236q0 92 -17 163.5t-56.5 117t-96.5 45.5q-58 0 -97.5 -46t-56 -117t-16.5 -163z" />
<glyph unicode="&#xf5;" horiz-adv-x="1187" d="M20 510q0 152 74 279.5t206 202.5t294 75q121 0 228 -44t182.5 -119t119 -177.5t43.5 -216.5q0 -115 -42.5 -217.5t-117.5 -177t-182.5 -118.5t-230.5 -44q-162 0 -294 74.5t-206 202t-74 280.5zM100 1188q-3 78 45 158q82 139 254 147h37q62 -2 126.5 -21t111 -41.5 t107 -41.5t114.5 -21q45 -1 83.5 16.5t59 40t39 42t27.5 20.5q17 2 25 -44q15 -81 -23 -163q-66 -139 -247 -153q-43 -3 -91 1q-66 7 -148 40t-155 63.5t-121 32.5q-54 2 -97 -15.5t-63.5 -40t-38 -41.5t-26.5 -20q-17 -3 -19 41zM424 510q0 -140 43 -233t127 -93 q87 0 128.5 90t41.5 236q0 92 -17 163.5t-56.5 117t-96.5 45.5q-58 0 -97.5 -46t-56 -117t-16.5 -163z" />
<glyph unicode="&#xf6;" horiz-adv-x="1187" d="M20 510q0 152 74 279.5t206 202.5t294 75q121 0 228 -44t182.5 -119t119 -177.5t43.5 -216.5q0 -115 -42.5 -217.5t-117.5 -177t-182.5 -118.5t-230.5 -44q-162 0 -294 74.5t-206 202t-74 280.5zM152 1307q0 73 59 124.5t143 51.5q85 0 145 -51.5t60 -124.5t-60 -125 t-145 -52q-83 0 -142.5 52t-59.5 125zM424 510q0 -140 43 -233t127 -93q87 0 128.5 90t41.5 236q0 92 -17 163.5t-56.5 117t-96.5 45.5q-58 0 -97.5 -46t-56 -117t-16.5 -163zM629 1307q0 74 58.5 125t143.5 51t144 -51.5t59 -124.5q0 -74 -59 -125.5t-144 -51.5 t-143.5 51.5t-58.5 125.5z" />
<glyph unicode="&#xf7;" horiz-adv-x="1024" d="M59 414v176q3 10 13 10h874q4 0 6 -2t2 -4v-2v-180q0 -6 -8 -6h-876q-4 0 -6.5 2t-3.5 4zM358 184q0 63 45.5 107.5t108.5 44.5t108.5 -44.5t45.5 -107.5t-45.5 -108t-108.5 -45t-108.5 45t-45.5 108zM358 821q0 64 45.5 109t108.5 45t108.5 -45t45.5 -109 q0 -63 -45.5 -107t-108.5 -44t-108.5 44t-45.5 107z" />
<glyph unicode="&#xf8;" horiz-adv-x="1167" d="M10 510q0 152 74 279.5t206 202.5t294 75q107 0 200 -35l80 176q2 4 5 6t5 2l3 1h145q6 -1 0 -9q-57 -92 -131 -225q124 -74 195 -199.5t71 -273.5q0 -115 -42.5 -217.5t-117.5 -177t-182.5 -118.5t-230.5 -44q-98 0 -199 33l-88 -195l-12 -6h-148l-3 1l3 5q1 3 139 244 q-124 74 -195 199t-71 276zM414 510q0 -101 20 -174l238 463q-37 37 -88 37q-58 0 -97.5 -46t-56 -117t-16.5 -163zM498 219q35 -35 86 -35q87 0 128.5 90t41.5 236q0 96 -21 170z" />
<glyph unicode="&#xf9;" horiz-adv-x="1259" d="M-8 924q18 53 92 99t156 46q128 0 215.5 -85t87.5 -226v-398q0 -96 48 -116q41 -16 83 31q57 64 61 180v563q0 4 2 7t4 4l2 1h412q8 -2 8 -10q-16 -467 -16 -608q0 -91 14.5 -151.5t33.5 -84t38 -35.5t29.5 -19.5t5.5 -21.5q-18 -53 -92 -99t-156 -46q-107 0 -182 63 t-97 172q-60 -121 -149.5 -178t-181.5 -57q-117 0 -199 94t-82 244v319q0 91 -16 151.5t-37.5 84t-43 35.5t-33.5 19.5t-7 21.5zM338 1505q-5 11 4 17q102 121 264 161q9 3 12 -4q34 -138 91 -231.5t168 -204.5q8 -8 2 -14q-39 -65 -84 -101q-4 -2 -17 2q-302 106 -440 375z " />
<glyph unicode="&#xfa;" horiz-adv-x="1259" d="M-8 924q18 53 92 99t156 46q128 0 215.5 -85t87.5 -226v-398q0 -96 48 -116q41 -16 83 31q57 64 61 180v563q0 4 2 7t4 4l2 1h412q8 -2 8 -10q-16 -467 -16 -608q0 -91 14.5 -151.5t33.5 -84t38 -35.5t29.5 -19.5t5.5 -21.5q-18 -53 -92 -99t-156 -46q-107 0 -182 63 t-97 172q-60 -121 -149.5 -178t-181.5 -57q-117 0 -199 94t-82 244v319q0 91 -16 151.5t-37.5 84t-43 35.5t-33.5 19.5t-7 21.5zM375 1229q-6 6 2 14q111 111 167.5 204t90.5 232q3 7 12 4q162 -40 264 -161q9 -6 4 -17q-138 -269 -440 -375q-12 -4 -16 -2q-45 36 -84 101z " />
<glyph unicode="&#xfb;" horiz-adv-x="1259" d="M-8 924q18 53 92 99t156 46q128 0 215.5 -85t87.5 -226v-398q0 -96 48 -116q41 -16 83 31q57 64 61 180v563q0 4 2 7t4 4l2 1h412q8 -2 8 -10q-16 -467 -16 -608q0 -91 14.5 -151.5t33.5 -84t38 -35.5t29.5 -19.5t5.5 -21.5q-18 -53 -92 -99t-156 -46q-107 0 -182 63 t-97 172q-60 -121 -149.5 -178t-181.5 -57q-117 0 -199 94t-82 244v319q0 91 -16 151.5t-37.5 84t-43 35.5t-33.5 19.5t-7 21.5zM211.5 1141q-9.5 12 9.5 35q322 368 324 370q2 3 5 4.5t5 1.5h2h141q13 0 21 -8l313 -375q20 -26 6.5 -36.5t-41.5 0.5l-366 133 q-264 -90 -377 -127q-33 -10 -42.5 2z" />
<glyph unicode="&#xfc;" horiz-adv-x="1259" d="M-8 924q18 53 92 99t156 46q128 0 215.5 -85t87.5 -226v-398q0 -96 48 -116q41 -16 83 31q57 64 61 180v563q0 4 2 7t4 4l2 1h412q8 -2 8 -10q-16 -467 -16 -608q0 -91 14.5 -151.5t33.5 -84t38 -35.5t29.5 -19.5t5.5 -21.5q-18 -53 -92 -99t-156 -46q-107 0 -182 63 t-97 172q-60 -121 -149.5 -178t-181.5 -57q-117 0 -199 94t-82 244v319q0 91 -16 151.5t-37.5 84t-43 35.5t-33.5 19.5t-7 21.5zM188 1307q0 73 59.5 124.5t143.5 51.5q85 0 145 -51.5t60 -124.5t-60 -125t-145 -52q-83 0 -143 52t-60 125zM666 1307q0 74 58.5 125t143.5 51 t144 -51.5t59 -124.5q0 -74 -59 -125.5t-144 -51.5t-143.5 51.5t-58.5 125.5z" />
<glyph unicode="&#xfd;" horiz-adv-x="1218" d="M-8 924q18 53 92 99t156 46q128 0 214.5 -85t86.5 -226v-385q0 -97 49 -117q42 -16 86 33q59 66 61 190v539l8 10h396q8 0 8 -10q6 -602 6 -873q5 -133 -30 -244.5t-105.5 -192.5t-180.5 -126t-249 -45q-85 0 -160 22t-124.5 53.5t-89 71.5t-59 72.5t-28.5 59.5 q-15 47 -16.5 74.5t6 34.5t20.5 5q12 -2 31 -20t44 -41t58.5 -46.5t87 -39.5t117.5 -16q118 0 188.5 68t75.5 165v205q-40 -84 -99 -139.5t-116.5 -77t-115.5 -21.5q-117 0 -199 94t-82 244v307q0 91 -16 151.5t-37.5 84t-43 35.5t-33.5 19.5t-7 21.5zM358 1229q-6 6 2 14 q111 111 167.5 204t90.5 232q4 7 13 4q162 -40 264 -161q9 -6 4 -17q-138 -269 -440 -375q-13 -4 -17 -2q-45 36 -84 101z" />
<glyph unicode="&#xff;" horiz-adv-x="1218" d="M-8 924q18 53 92 99t156 46q128 0 214.5 -85t86.5 -226v-357q0 -97 49 -117q42 -16 85 33q60 67 62 191v510l8 10h396q8 0 8 -10q6 -597 6 -868q9 -273 -139.5 -441t-425.5 -168q-85 0 -160 22t-124.5 53.5t-89 71.5t-59 72.5t-28.5 59.5q-15 47 -16.5 74.5t6 34.5 t20.5 5q12 -2 31 -19.5t44 -40t58.5 -45.5t87 -38.5t117.5 -15.5q116 0 187.5 77t76.5 177v204q-58 -122 -148.5 -179.5t-182.5 -57.5q-117 0 -199 94t-82 244v278q0 91 -16 151.5t-37.5 84t-43 35.5t-33.5 19.5t-7 21.5zM197 1307q0 74 58.5 125t143.5 51t144 -51.5 t59 -124.5q0 -74 -59 -125.5t-144 -51.5t-143.5 51.5t-58.5 125.5zM674 1307q0 73 59 124.5t144 51.5t143.5 -51t58.5 -125t-58.5 -125.5t-143.5 -51.5t-144 51.5t-59 125.5z" />
<glyph unicode="&#x153;" horiz-adv-x="1843" d="M20 510q0 152 74 279.5t206 202.5t294 75q108 0 209.5 -42.5t157.5 -109.5q54 66 164.5 112t226.5 46q81 0 152 -16t122.5 -44t92 -63.5t65 -76t37 -80t12.5 -76.5q0 -93 -41.5 -160.5t-107.5 -103.5t-152.5 -52.5t-171.5 -15t-170 15.5q35 -100 129 -144t217 -27.5 t248 85.5q14 11 26 2q14 -11 7 -32q-8 -28 -31 -67t-66.5 -85.5t-98 -85t-133 -64.5t-163.5 -26q-100 0 -200.5 46t-157.5 114q-54 -74 -156.5 -119t-216.5 -45q-162 0 -294 74.5t-206 202t-74 280.5zM424 510q0 -140 43 -233t127 -93q87 0 128.5 90t41.5 236 q0 92 -17 163.5t-56.5 117t-96.5 45.5q-58 0 -97.5 -46t-56 -117t-16.5 -163zM1174 582q133 -12 202.5 31.5t69.5 129.5q0 42 -31.5 72t-77.5 27q0 -2 -2 -2h-6q-24 -3 -49 -19q-91 -55 -106 -239z" />
<glyph unicode="&#x178;" horiz-adv-x="1368" d="M1.5 1459.5q1.5 3.5 4.5 4.5l4 2h492q10 0 14 -12l252 -625q41 62 67 135t36 135t12.5 125t-1.5 104.5t-8 75t-4 34.5q-1 30 61 57q91 40 198 26q151 -18 205 -139q24 -52 26 -122q0 -70 -17 -137t-41 -119t-65.5 -106.5t-76 -90.5t-88.5 -80.5t-85.5 -67.5t-83.5 -59 v-174q3 -90 20 -150.5t38 -83.5t41 -35t30.5 -19.5t5.5 -22.5q-20 -58 -102.5 -110t-171.5 -52q-136 0 -223.5 87.5t-87.5 266.5q0 211 -2 307l-449 836q-2 6 -0.5 9.5zM242 1716q0 73 59 124.5t143 51.5q85 0 145 -51.5t60 -124.5t-60 -124.5t-145 -51.5q-84 0 -143 51.5 t-59 124.5zM719 1716q0 73 59 124.5t144 51.5t143.5 -51t58.5 -125t-58.5 -125t-143.5 -51t-144 51.5t-59 124.5z" />
<glyph unicode="&#x2c6;" horiz-adv-x="849" d="M13 1141q-9 12 10 35q321 368 323 370q2 3 5 4.5t5 1.5h2h142q12 0 20 -8l314 -375q20 -26 6.5 -36.5t-41.5 0.5l-367 133q-264 -90 -377 -127q-33 -10 -42 2z" />
<glyph unicode="&#x2dc;" horiz-adv-x="1052" d="M10 1188q-3 78 45 158q82 139 254 147h37q62 -2 126.5 -21t111 -41.5t107 -41.5t114.5 -21q45 -1 83.5 16.5t59 40t39 42t27.5 20.5q17 2 25 -44q15 -81 -23 -163q-66 -139 -247 -153q-43 -3 -91 1q-66 7 -148 40t-155 63.5t-121 32.5q-54 2 -97 -15.5t-63.5 -40 t-38 -41.5t-26.5 -20q-17 -3 -19 41z" />
<glyph unicode="&#x2000;" horiz-adv-x="1057" />
<glyph unicode="&#x2001;" horiz-adv-x="2114" />
<glyph unicode="&#x2002;" horiz-adv-x="1057" />
<glyph unicode="&#x2003;" horiz-adv-x="2114" />
<glyph unicode="&#x2004;" horiz-adv-x="704" />
<glyph unicode="&#x2005;" horiz-adv-x="528" />
<glyph unicode="&#x2006;" horiz-adv-x="352" />
<glyph unicode="&#x2007;" horiz-adv-x="352" />
<glyph unicode="&#x2008;" horiz-adv-x="264" />
<glyph unicode="&#x2009;" horiz-adv-x="422" />
<glyph unicode="&#x200a;" horiz-adv-x="117" />
<glyph unicode="&#x2010;" horiz-adv-x="753" d="M61 430v176q3 10 13 10h608q4 0 6 -2t2 -4v-2v-180q0 -6 -8 -6h-610q-4 0 -6.5 2t-3.5 4z" />
<glyph unicode="&#x2011;" horiz-adv-x="753" d="M61 430v176q3 10 13 10h608q4 0 6 -2t2 -4v-2v-180q0 -6 -8 -6h-610q-4 0 -6.5 2t-3.5 4z" />
<glyph unicode="&#x2012;" horiz-adv-x="753" d="M61 430v176q3 10 13 10h608q4 0 6 -2t2 -4v-2v-180q0 -6 -8 -6h-610q-4 0 -6.5 2t-3.5 4z" />
<glyph unicode="&#x2013;" horiz-adv-x="1024" d="M59 414v176q3 10 13 10h874q4 0 6 -2t2 -4v-2v-180q0 -6 -8 -6h-876q-4 0 -6.5 2t-3.5 4z" />
<glyph unicode="&#x2014;" horiz-adv-x="1665" d="M59 414v176q3 10 13 10h1515q4 0 6 -2t2 -4v-2v-180q0 -6 -8 -6h-1517q-4 0 -6.5 2t-3.5 4z" />
<glyph unicode="&#x2018;" horiz-adv-x="421" d="M31 1133q0 70 25 131.5t63 100t71.5 62t61.5 33.5q92 33 92 -4q0 -19 -31 -47q-36 -34 -51.5 -58.5t-12 -38.5t22.5 -20q54 -22 86.5 -67.5t32.5 -104.5q0 -74 -53.5 -127t-126.5 -53q-74 0 -127 55.5t-53 137.5z" />
<glyph unicode="&#x2019;" horiz-adv-x="421" d="M31 1298q0 74 52.5 127.5t127.5 53.5q73 0 126.5 -55.5t53.5 -137.5q0 -70 -25 -131.5t-63 -100.5t-71.5 -62.5t-61.5 -33.5q-94 -34 -94 5q0 18 33 47q36 34 51.5 58.5t12 38t-22.5 19.5q-54 22 -86.5 67.5t-32.5 104.5z" />
<glyph unicode="&#x201a;" horiz-adv-x="419" d="M31 164q0 74 52.5 127t127.5 53q73 0 126.5 -55t53.5 -137q0 -70 -25 -131.5t-63 -100.5t-71.5 -62.5t-61.5 -33.5q-94 -34 -94 4q0 18 33 47q36 34 51.5 58.5t12 38.5t-22.5 20q-54 22 -86.5 67.5t-32.5 104.5z" />
<glyph unicode="&#x201c;" horiz-adv-x="811" d="M31 1133q0 70 25 131.5t63 100t71.5 62t61.5 33.5q92 33 92 -4q0 -19 -31 -47q-36 -34 -51.5 -58.5t-12 -38.5t22.5 -20q54 -22 86.5 -67.5t32.5 -104.5q0 -74 -53.5 -127t-126.5 -53q-74 0 -127 55.5t-53 137.5zM420 1133q0 70 25 131.5t63 100t71.5 62t61.5 33.5 q94 34 94 -4q0 -18 -33 -47q-36 -34 -51 -58.5t-11.5 -38.5t22.5 -20q54 -22 86 -67.5t32 -104.5q0 -74 -52.5 -127t-127.5 -53q-73 0 -126.5 55.5t-53.5 137.5z" />
<glyph unicode="&#x201d;" horiz-adv-x="811" d="M31 1298q0 74 52.5 127.5t127.5 53.5q73 0 126.5 -55.5t53.5 -137.5q0 -70 -25 -131.5t-63 -100.5t-71.5 -62.5t-61.5 -33.5q-94 -34 -94 5q0 18 33 47q36 34 51.5 58.5t12 38t-22.5 19.5q-54 22 -86.5 67.5t-32.5 104.5zM420 1298q0 74 53.5 127.5t126.5 53.5 q74 0 127 -55.5t53 -137.5q0 -70 -25 -131.5t-63 -100.5t-71.5 -62.5t-61.5 -33.5q-92 -33 -92 5q0 19 31 47q36 34 51.5 58.5t12 38t-22.5 19.5q-54 22 -86.5 67.5t-32.5 104.5z" />
<glyph unicode="&#x201e;" horiz-adv-x="811" d="M31 154q0 74 52.5 127t127.5 53q73 0 126.5 -55.5t53.5 -137.5q0 -70 -25 -131.5t-63 -100t-71.5 -62t-61.5 -33.5q-94 -34 -94 4q0 18 33 47q36 34 51.5 58.5t12 38.5t-22.5 20q-54 22 -86.5 67.5t-32.5 104.5zM420 154q0 74 53 127t127 53t127 -55.5t53 -137.5 q0 -70 -25 -131.5t-63 -100t-71.5 -62t-61.5 -33.5q-92 -33 -92 4q0 19 31 47q36 34 51.5 58.5t12 38.5t-22.5 20q-54 22 -86.5 67.5t-32.5 104.5z" />
<glyph unicode="&#x2022;" horiz-adv-x="692" d="M41 510q0 128 89 217.5t216 89.5q126 0 215.5 -90t89.5 -217q0 -126 -89.5 -215.5t-215.5 -89.5q-127 0 -216 89.5t-89 215.5z" />
<glyph unicode="&#x2026;" horiz-adv-x="1507" d="M31 164q0 83 58.5 142t141.5 59t142 -59t59 -142t-59 -142t-142 -59t-141.5 59t-58.5 142zM553 164q0 83 59 142t142 59t141.5 -59t58.5 -142t-58.5 -142t-141.5 -59t-142 59t-59 142zM1075 164q0 83 59 142t142 59t142 -59t59 -142t-59 -142t-142 -59t-142 59t-59 142z " />
<glyph unicode="&#x202f;" horiz-adv-x="422" />
<glyph unicode="&#x205f;" horiz-adv-x="528" />
<glyph unicode="&#x20ac;" horiz-adv-x="1155" d="M10 348v125q0 6 8 6q26 0 88 -4q-2 12 -2 39q0 25 2 37q-54 -4 -86 -4l-10 8v125q0 6 8 6q52 0 111 -6q53 171 200.5 280.5t352.5 110.5h2h4q47 0 72 -4q68 -6 132.5 -25t122.5 -51.5t93 -84t35 -115.5q0 -78 -54 -136.5t-143 -58.5q-55 0 -97.5 14.5t-39.5 42.5 q6 86 -18 129q-33 51 -99 58h-18q-25 0 -35 -4q-87 -22 -117 -160l219 10q4 0 7 -2t4 -4v-2v-121q-1 -10 -11 -10q-94 8 -231 12q0 -3 -1 -9t-1 -9q2 -8 2 -27v-47l231 12q4 0 7 -2t4 -4v-2v-121q-1 -10 -11 -10q-88 8 -217 12q30 -137 117 -159q13 -5 35 -5h16q67 7 99 58 q26 48 18 129q-1 28 41 43.5t96 15.5q90 0 144.5 -59t52.5 -137q0 -64 -35 -115.5t-92.5 -84t-122.5 -52t-133 -25.5q-23 -4 -70 -4h-2h-2h-2q-205 1 -352.5 110t-200.5 279q-105 -6 -111 -6z" />
<glyph unicode="&#x2122;" horiz-adv-x="1132" d="M10 942v115q0 4 6 4h463l4 -4v-117q0 -2 -2 -2q-32 -6 -145 -10v-303l-4 -4h-168q-2 0 -2 4q-2 170 -2 303q-102 3 -146 10zM504 625q8 412 8 432l2 2h203l6 -4l84 -162h2l84 162q2 4 6 4h203q2 0 2 -2l6 -432l-2 -4h-168q-4 0 -4 6v204l6 39q0 3 -6 3t-6 -3l-12 -43 l-91 -198q-3 -8 -12 -8h-14q-10 0 -13 8l-90 196l-12 45q-2 5 -10 3q-2 -2 -2 -3q0 -13 6 -43v-200l-4 -6h-168q-4 2 -4 4z" />
<glyph unicode="&#xe000;" horiz-adv-x="1064" d="M0 0v1065h1065v-1065h-1065z" />
</font>
</defs>
</svg>
